Пипец 2 / Kick-Ass 2 (Джефф Уодлоу / Jeff Wadlow) [2013, США, Великобритания, боевик, комедия, криминал, BDRip 1080p] Dub + Original Eng + Sub Rus, Ukr, Eng + Comm

Ответить на тему
 
Автор Сообщение

user ®

Стаж: 7 лет 7 месяцев

Сообщений: 20008

Пост Пост: #1 от 08-Дек-2013 23:05

[Цитировать]

Пипец 2 / Kick-Ass 2
Год выпуска: 2013
Страна: США, Великобритания
Жанр: Боевик, комедия, криминал
Продолжительность: 01:43:00
Перевод: Профессиональный (полное дублирование) (Blu-Ray CEE)
Субтитры: Russian (Forced, Blu-ray CEE), Russian (Blu-ray CEE), Ukrainian (Blu-ray CEE), English, English (SDH), English (SDH-COLORED)
Оригинальная аудиодорожка: английский
Режиссер:
Джефф Уодлоу / Jeff Wadlow
В ролях:
Аарон Тейлор-Джонсон, Хлоя Грейс Морец, Кристофер Минц-Плассе, Джим Керри, Ольга Куркулина, Кларк Дьюк, Линди Бут, Дональд Фэйсон, Роберт Эммс, Август Прю
Описание:
В реальной жизни не встретишь супергероя из комиксов, зато в ней есть настоящие герои. Харизматичный Пипец и гламурная Убивашка обрели новую команду поддержки во главе с Полковником Америка. Но кроме обычных мафиози, над городом нависает новая угроза - молодой мажор с очень дурным характером и целой армией отмороженных наемников.

MediaInfo:

Общее
Уникальный идентификатор : 206277545812147682458807609270478832231 (0x9B2F9C38421B8C6DBA9B70EE665C0267)
Полное имя : D:\Kick.Ass.2.2013.1080p.BluRay.DTS.Rus.2xEng.HDCLUB.mkv
Формат : Matroska
Версия формата : Version 2
Размер файла : 11,6 Гбайт
Продолжительность : 1 ч. 43 м.
Общий поток : 16,2 Мбит/сек
Название фильма : Kick-Ass 2 (2013) - Release for HDCLUB
Дата кодирования : UTC 2013-12-08 16:04:26
Программа кодирования : mkvmerge v4.5.0 ('Speed of Light') сборка от Feb 15 2011 12:50:20
Библиотека кодирования : libebml v1.2.0 + libmatroska v1.1.0
Видео
Идентификатор : 1
Формат : AVC
Формат/Информация : Advanced Video Codec
Профиль формата : High@L4.1
Параметр CABAC формата : Да
Параметр ReFrames формата : 5 кадров
Идентификатор кодека : V_MPEG4/ISO/AVC
Продолжительность : 1 ч. 43 м.
Битрейт : 13,4 Мбит/сек
Ширина : 1920 пикселей
Высота : 800 пикселей
Соотношение сторон : 2,40:1
Режим частоты кадров : Постоянный
Частота кадров : 23,976 кадра/сек
Цветовое пространство : YUV
Субдискретизация насыщенности : 4:2:0
Битовая глубина : 8 бит
Тип развёртки : Прогрессивная
Бит/(Пиксели*Кадры) : 0.363
Размер потока : 9,63 Гбайт (83%)
Заголовок : Kick-Ass 2 (2013) - Release for HDCLUB
Библиотека кодирования : x264 core 130 r2273 b3065e6
Настройки программы : cabac=1 / ref=5 / deblock=1:-3:-3 / analyse=0x3:0x113 / me=tesa / subme=10 / psy=1 / psy_rd=1.05:0.00 / mixed_ref=1 / me_range=16 / chroma_me=1 / trellis=2 / 8x8dct=1 / cqm=0 / deadzone=21,11 / fast_pskip=0 / chroma_qp_offset=-2 / threads=12 / lookahead_threads=2 / sliced_threads=0 / nr=0 / decimate=0 / interlaced=0 / bluray_compat=0 / constrained_intra=0 / bframes=7 / b_pyramid=2 / b_adapt=2 / b_bias=0 / direct=3 / weightb=1 / open_gop=0 / weightp=2 / keyint=250 / keyint_min=23 / scenecut=40 / intra_refresh=0 / rc=crf / mbtree=0 / crf=16.0 / qcomp=0.75 / qpmin=0 / qpmax=69 / qpstep=4 / ip_ratio=1.10 / pb_ratio=1.10 / aq=1:0.60
Язык : English
Default : Да
Forced : Нет
Коэффициенты матрицы : BT.709
Аудио #1
Идентификатор : 2
Формат : DTS
Формат/Информация : Digital Theater Systems
Режим : 16
Параметр Endianness формата : Big
Идентификатор кодека : A_DTS
Продолжительность : 1 ч. 43 м.
Вид битрейта : Постоянный
Битрейт : 768 Кбит/сек
Каналы : 6 каналов
Расположение каналов : Front: L C R, Side: L R, LFE
Частота : 48,0 КГц
Битовая глубина : 24 бит
Метод сжатия : С потерями
Размер потока : 566 Мбайт (5%)
Заголовок : DTS 5.1 @ 768 kbps - DUB, Blu-ray CEE
Язык : Russian
Default : Да
Forced : Нет
Аудио #2
Идентификатор : 3
Формат : DTS
Формат/Информация : Digital Theater Systems
Режим : 16
Параметр Endianness формата : Big
Идентификатор кодека : A_DTS
Продолжительность : 1 ч. 43 м.
Вид битрейта : Постоянный
Битрейт : 1509 Кбит/сек
Каналы : 6 каналов
Расположение каналов : Front: L C R, Side: L R, LFE
Частота : 48,0 КГц
Битовая глубина : 24 бит
Метод сжатия : С потерями
Размер потока : 1,09 Гбайт (9%)
Заголовок : DTS 5.1 @ 1536 kbps
Язык : English
Default : Нет
Forced : Нет
Аудио #3
Идентификатор : 4
Формат : AC-3
Формат/Информация : Audio Coding 3
Профиль формата : Dolby Digital
Расширение режима : CM (complete main)
Параметр Endianness формата : Big
Идентификатор кодека : A_AC3
Продолжительность : 1 ч. 43 м.
Вид битрейта : Постоянный
Битрейт : 192 Кбит/сек
Каналы : 2 канала
Расположение каналов : Front: L R
Частота : 48,0 КГц
Битовая глубина : 16 бит
Метод сжатия : С потерями
Размер потока : 141 Мбайт (1%)
Заголовок : AC3 2.0 @ 192 kbps - Commentary with Aaron Taylor-Johnson, Chloe Grace Moretz, Christopher Mintz-Plasse, and Jeff Wadlow
Язык : English
Default : Нет
Forced : Нет
Текст #1
Идентификатор : 5
Формат : UTF-8
Идентификатор кодека : S_TEXT/UTF8
Идентификатор кодека/Информация : UTF-8 Plain Text
Заголовок : Forced
Язык : Russian
Default : Да
Forced : Нет
Текст #2
Идентификатор : 6
Формат : UTF-8
Идентификатор кодека : S_TEXT/UTF8
Идентификатор кодека/Информация : UTF-8 Plain Text
Язык : Russian
Default : Нет
Forced : Нет
Текст #3
Идентификатор : 7
Формат : UTF-8
Идентификатор кодека : S_TEXT/UTF8
Идентификатор кодека/Информация : UTF-8 Plain Text
Язык : Ukrainian
Default : Нет
Forced : Нет
Текст #4
Идентификатор : 8
Формат : UTF-8
Идентификатор кодека : S_TEXT/UTF8
Идентификатор кодека/Информация : UTF-8 Plain Text
Язык : English
Default : Нет
Forced : Нет
Текст #5
Идентификатор : 9
Формат : UTF-8
Идентификатор кодека : S_TEXT/UTF8
Идентификатор кодека/Информация : UTF-8 Plain Text
Заголовок : SDH
Язык : English
Default : Нет
Forced : Нет
Текст #6
Идентификатор : 10
Формат : UTF-8
Идентификатор кодека : S_TEXT/UTF8
Идентификатор кодека/Информация : UTF-8 Plain Text
Заголовок : SDH-COLORED
Язык : English
Default : Нет
Forced : Нет
Меню
00:00:00.000 : en:00:00:00.000
00:05:58.191 : en:00:05:58.191
00:10:37.929 : en:00:10:37.929
00:14:08.306 : en:00:14:08.306
00:19:11.108 : en:00:19:11.108
00:23:11.348 : en:00:23:11.348
00:30:20.444 : en:00:30:20.444
00:35:25.498 : en:00:35:25.498
00:40:13.786 : en:00:40:13.786
00:45:37.193 : en:00:45:37.193
00:52:35.778 : en:00:52:35.778
00:58:02.396 : en:00:58:02.396
01:00:37.843 : en:01:00:37.843
01:05:36.099 : en:01:05:36.099
01:09:57.944 : en:01:09:57.944
01:15:56.343 : en:01:15:56.343
01:21:05.486 : en:01:21:05.486
01:23:32.549 : en:01:23:32.549
01:33:05.538 : en:01:33:05.538
01:36:38.251 : en:01:36:38.251
Качество: BDRip 1080p
Формат: MKV
Видео кодек: MPEG-4 AVC
Аудио кодек: DTS, AC3
Видео: MPEG-4 AVC, 1920x800, 23.976 fps, ~13,4 Mbps
Аудио1: DTS, 48 kHz, 6 ch, ~768 kbps [Russian (Дубляж, Blu-Ray CEE)]
Аудио2: DTS, 48 kHz, 6 ch, ~1536 kbps [English]
Аудио3: AC3, 48 kHz, 2 ch, ~192 kbps [Commentary with Aaron Taylor-Johnson, Chloe Grace Moretz, Christopher Mintz-Plasse, and Jeff Wadlow]

Скриншоты:

Скачать

Скачать торрент!

Как скачивать? · Что такое торрент? · Рейтинг и ограничения

Сайт не распространяет и не хранит электронные версии произведений, а лишь предоставляет доступ к создаваемому пользователями каталогу ссылок на торрент-файлы, которые содержат только списки хеш-сумм

[Профиль] [ЛС]
Показать сообщения:    
Ответить на тему

Текущее время: Сегодня 06:07

Часовой пояс: GMT + 4



Вы не можете начинать темы
Вы не можете отвечать на сообщения
Вы не можете редактировать свои сообщения
Вы не можете удалять свои сообщения
Вы не можете голосовать в опросах
Вы не можете прикреплять файлы к сообщениям
Вы не можете скачивать файлы