Альфа и Омега: Приключения праздничного воя / Alpha and Omega 2: A Howl-iday Adventure (Ричард Рич / Richard Rich) [2013, мультфильм, комедия, приключения, семейный, HDRip] MVO

Ответить на тему
 
Автор Сообщение

user ®

Стаж: 13 лет

Сообщений: 15041

Пост Пост: #1 от 07-Дек-2013 22:30

[Цитировать]

Альфа и Омега: Приключения праздничного воя / Alpha and Omega 2: A Howl-iday Adventure
Страна: США
Жанр: комедия, приключения, семейный
Продолжительность: 00:45:08
Год выпуска: 2013
Перевод: Профессиональный (многоголосый закадровый)
Русские субтитры: нет
Режиссёр: Ричард Рич / Richard Rich
Роли озвучивали: Бен Дискин, Кейт Хиггинс, Blackie Rose, Lindsay Torrance, Liza West, Трэйси Пфау, Bill Lader, Meryl Leigh, Шон Жерардо, Chris Smith
Описание: Кейт и Хамфри и их 3 волчат, готовятся к празднованию их первой совместной зимы, когда их самый маленький детеныш, Рант, таинственным образом исчезает.
Качество: HDRip
Формат: AVI
Видео: 720x400 (1.80:1), 23.976 fps, XviD build 50 ~1966 kbps avg, 0.28 bit/pixel
Аудио: 48 kHz, AC3 Dolby Digital, 2/0 (L,R) ch, ~192 kbps
Субтитры: Отсутствуют

Подробные технические данные

Общее Полное имя : E:\Blu-ray 2\Alpha.And.Omega.2.A.Howl-iday.Adventure.2013.P.HDRip.avi Формат : AVI Формат/Информация : Audio Video Interleave Размер файла : 700 Мбайт Продолжительность : 45 м. Общий поток : 2168 Кбит/сек Программа кодирования : VirtualDubMod 1.5.10.2 (build 2540/release) Библиотека кодирования : VirtualDubMod build 2540/release
Видео Идентификатор : 0 Формат : MPEG-4 Visual Профиль формата : Advanced Simple@L5 Параметр BVOP формата : 2 Параметр QPel формата : Нет Параметр GMC формата : Без точки перехода Параметр матрицы формата : Выборочная Идентификатор кодека : XVID Идентификатор кодека/Подсказка : XviD Продолжительность : 45 м. Битрейт : 1967 Кбит/сек Ширина : 720 пикселей Высота : 400 пикселей Соотношение сторон : 16:9 Частота кадров : 23,976 кадра/сек Цветовое пространство : YUV Субдискретизация насыщенности : 4:2:0 Битовая глубина : 8 бит Тип развёртки : Прогрессивная Метод сжатия : С потерями Бит/(Пиксели*Кадры) : 0.285 Размер потока : 635 Мбайт (91%) Библиотека кодирования : XviD 1.2.1 (UTC 2008-12-04)
Аудио Идентификатор : 1 Формат : AC-3 Формат/Информация : Audio Coding 3 Расширение режима : CM (complete main) Параметр Endianness формата : Big Идентификатор кодека : 2000 Продолжительность : 45 м. Вид битрейта : Постоянный Битрейт : 192 Кбит/сек Каналы : 2 канала Расположение каналов : Front: L R Частота : 48,0 КГц Битовая глубина : 16 бит Метод сжатия : С потерями Размер потока : 62,0 Мбайт (9%) Выравнивание : Разделение по промежуткам Продолжительность промежутка : 42 мс. (1,00 видеокадр) Время предзагрузки промежутка : 500 мс.

Скриншоты

Скачать

Скачать торрент! Альфа и Омега: Приключения праздничного воя / Alpha and Omega 2: A Howl-iday Adventure (Ричард Рич / Richard Rich) [2013, мультфильм, комедия, приключения, семейный, HDRip] MVO

Как скачивать? · Что такое торрент? · Рейтинг и ограничения

Сайт не распространяет и не хранит электронные версии произведений, а лишь предоставляет доступ к создаваемому пользователями каталогу ссылок на торрент-файлы, которые содержат только списки хеш-сумм

[Профиль] [ЛС]
Показать сообщения:    
Ответить на тему

Текущее время: Сегодня 11:48

Часовой пояс: GMT + 4



Вы не можете начинать темы
Вы не можете отвечать на сообщения
Вы не можете редактировать свои сообщения
Вы не можете удалять свои сообщения
Вы не можете голосовать в опросах
Вы не можете прикреплять файлы к сообщениям
Вы не можете скачивать файлы