Невероятные приключения кота / Oggy et les cafards (Оливер Жан-Мари /Olivier Jean Marie) [2013, Комедия, семейный, DVDRip]

Ответить на тему
 
Автор Сообщение

user ®

Стаж: 11 лет

Сообщений: 15145

Пост Пост: #1 от 07-Дек-2013 15:45

[Цитировать]

Невероятные приключения кота / Oggy et les cafards
Страна: Франция
Жанр: Комедия, семейный
Продолжительность: 01:22:01
Год выпуска: 2013
Перевод: Не требуется
Русские субтитры: нет
Режиссёр: Оливер Жан-Мари /Olivier Jean Marie
Описание: Добродушный кот Огги любит поесть, поспать и помечтать о высоком. Но его вечно одолевают несносные соседи, отравляя его жизнь злыми шутками и приколами. Кот гоняется за ними с неослабевающим азартом, придумывает всё новые и новые хитроумные уловки, но увы… Покой ему только снится.
Качество: DVDRip
Формат: AVI
Видео: 720x384 (1.88:1), 25 fps, XviD MPEG-4, 1062 kbps avg, 0.15 bit/pixel
Аудио: 48 kHz, MPEG Layer 3, 2 ch, 128.00 kbps avg
Субтитры: Отсутствуют

Подробные технические данные

Neveroyatnye.priklu4eniya.kota.700.avi Format : AVI Format/Info : Audio Video Interleave File size : 704 MiB Duration : 1h 22mn Overall bit rate : 1 201 Kbps Movie name : N Genre : C Writing application : V Video #0 ID : 0 Format : MPEG-4 Visual Format profile : Advanced Simple@L5 Format settings, BVOP : 2 Format settings, QPel : No Format settings, GMC : No warppoints Format settings, Matrix : Default (H.263) Muxing mode : Packed bitstream Codec ID : XVID Codec ID/Hint : XviD Duration : 1h 22mn Bit rate : 1 063 Kbps Width : 720 pixels Height : 384 pixels Display aspect ratio : 1.875 Frame rate : 25.000 fps Color space : YUV Chroma subsampling : 4:2:0 Bit depth : 8 bits Scan type : Progressive Compression mode : Lossy Bits/(Pixel*Frame) : 0.154 Stream size : 624 MiB (89%) Writing library : XviD 1.2.1 (UTC 2008-12-04) Audio #1 ID : 1 Format : MPEG Audio Format version : Version 1 Format profile : Layer 3 Mode : Joint stereo Mode extension : MS Stereo Codec ID : 55 Codec ID/Hint : MP3 Duration : 1h 22mn Bit rate mode : Constant Bit rate : 128 Kbps Channel(s) : 2 channels Sampling rate : 48.0 KHz Compression mode : Lossy Stream size : 75.1 MiB (11%) Alignment : Aligned on interleaves Interleave, duration : 40 ms (1.00 video frame) Interleave, preload duration : 504 ms Writing library : LAME3.98r Encoding settings : -m j -V 4 -q 2 -lowpass 17 -b 128

Скриншоты

Скачать

Скачать торрент! Невероятные приключения кота / Oggy et les cafards (Оливер Жан-Мари /Olivier Jean Marie) [2013, Комедия, семейный, DVDRip]

Как скачивать? · Что такое торрент? · Рейтинг и ограничения

Сайт не распространяет и не хранит электронные версии произведений, а лишь предоставляет доступ к создаваемому пользователями каталогу ссылок на торрент-файлы, которые содержат только списки хеш-сумм

[Профиль] [ЛС]
Показать сообщения:    
Ответить на тему

Текущее время: Сегодня 18:59

Часовой пояс: GMT + 4



Вы не можете начинать темы
Вы не можете отвечать на сообщения
Вы не можете редактировать свои сообщения
Вы не можете удалять свои сообщения
Вы не можете голосовать в опросах
Вы не можете прикреплять файлы к сообщениям
Вы не можете скачивать файлы