Способы кунг-фу / The Ways of Kung-Fu / Ways of Kung Fu / Shen xing quan fa yu bu fa (Ли Чао / Li Chao) [1978, Тайвань, боевые искусства, VHSRip] AVO (Сергей Кузнецов)

Ответить на тему
 
Автор Сообщение

user ®

Стаж: 11 лет

Сообщений: 15151

Пост Пост: #1 от 07-Дек-2013 15:45

[Цитировать]

Способы кунг-фу / The Ways of Kung-Fu / Ways of Kung Fu / Shen xing quan fa yu bu fa
Страна: Тайвань
Жанр: боевые искусства
Год выпуска: 1978
Продолжительность: 01:30:48
Перевод: Авторский (одноголосый закадровый) Сергей Кузнецов
Cубтитры: нет
Режиссер: Ли Чао / Li Chao
В ролях: Чи Куан-Чун, Леунг Ка-Ян, Мэн Фэй, Чун Ва, Клифф Чин, Ю Тяньлун, Кук Ван, Вон Поу-Юк, Вон Чань
Описание: Несчастного ученика изгоняют из Храма Шаолинь после того, как он получает побои и многочисленные унижения со стороны лживых монахов. Он ушёл, чтобы путешествовать по сельской местности, и по пути встречает различных мастеров боевых искусств. Со временем он осваивает различные способы кунг-фу и возвращается, чтобы разоблачить зло монахов.
Благодарность: За исходник благодарность выражается шурик 555.
Сэмпл: http://multi-up.com/930216
Качество видео: VHSRip
Формат видео: AVI
Видео: 672x528 (1.27:1), 25 fps, XviD build 50 ~2016 kbps avg, 0.23 bit/pixel
Аудио: 48 kHz, MPEG Layer 3, 2 ch, ~128.00 kbps avg

MediaInfo

Format : AVI
Format/Info : Audio Video Interleave
File size : 1,37 Гбайт
Duration : 1 ч. 30 м.
Overall bit rate : 2154 Кбит/сек
Writing application : VirtualDubMod 1.5.10.3 | www.virtualdub-fr.org || (build 2550/release)
Writing library : VirtualDubMod build 2550/release
Видео
ID : 0
Format : MPEG-4 Visual
Format profile : Advanced Simple@L5
Format settings, BVOP : 2
Format settings, QPel : Нет
Format settings, GMC : Без точки перехода
Format settings, Matrix : Default (MPEG)
Codec ID : XVID
Codec ID/Hint : XviD
Duration : 1 ч. 30 м.
Bit rate : 2016 Кбит/сек
Width : 672 пикселя
Height : 528 пикселей
Display aspect ratio : 1,273
Frame rate : 25,000 кадров/сек
Color space : YUV
Chroma subsampling : 4:2:0
Bit depth : 8 бит
Scan type : Прогрессивная
Compression mode : С потерями
Bits/(Pixel*Frame) : 0.227
Stream size : 1,28 Гбайт (94%)
Writing library : XviD 1.2.1 (UTC 2008-12-04)
Аудио
ID : 1
Format : MPEG Audio
Format version : Version 1
Format profile : Layer 3
Codec ID : 55
Codec ID/Hint : MP3
Duration : 1 ч. 30 м.
Bit rate mode : Постоянный
Bit rate : 128 Кбит/сек
Channel(s) : 2 канала
Sampling rate : 48,0 КГц
Compression mode : С потерями
Stream size : 83,1 Мбайт (6%)
Alignment : Соединение по промежуткам
Interleave, duration : 40 мс. (1,00 видеокадр)
Interleave, preload duration : 504 мс.
Writing library : LAME3.99r
Encoding settings : -m s -V 4 -q 2 -lowpass 17 -b 128

Скриншот c названием фильма

Скриншоты

Скачать

Скачать торрент! Способы кунг-фу / The Ways of Kung-Fu / Ways of Kung Fu / Shen xing quan fa yu bu fa (Ли Чао / Li Chao) [1978, Тайвань, боевые искусства, VHSRip] AVO (Сергей Кузнецов)

Как скачивать? · Что такое торрент? · Рейтинг и ограничения

Сайт не распространяет и не хранит электронные версии произведений, а лишь предоставляет доступ к создаваемому пользователями каталогу ссылок на торрент-файлы, которые содержат только списки хеш-сумм

[Профиль] [ЛС]
Показать сообщения:    
Ответить на тему

Текущее время: Сегодня 10:05

Часовой пояс: GMT + 4



Вы не можете начинать темы
Вы не можете отвечать на сообщения
Вы не можете редактировать свои сообщения
Вы не можете удалять свои сообщения
Вы не можете голосовать в опросах
Вы не можете прикреплять файлы к сообщениям
Вы не можете скачивать файлы