Приключения козы / Yagi no Bouken / The Catcher on the Shore (Рюго Накамура / Ryugo Nakamura) [2010, Япония, драма, DVDRip] Sub Rus + Orig Jap

Ответить на тему
 
Автор Сообщение

user ®

Стаж: 13 лет

Сообщений: 15071

Пост Пост: #1 от 07-Дек-2013 09:25

[Цитировать]

Приключения козы / Yagi no Bouken / The Catcher on the Shore
Страна: Япония
Жанр: драма
Год выпуска: 2010
Продолжительность: 01:24:10
Перевод: Субтитры (Алексей Крылов aka rrrtttsss aka prostotak)
Cубтитры: русские
Оригинальная аудиодорожка: японский
Режиссер: Рюго Накамура / Ryugo Nakamura
В ролях: Мунекадзу Уехара, Сейма Гима, Сусуму Тайра, Таеко Йошида, Яйой Широма, Содзи Уехара и др.
Описание: Фильм рассказывает о мальчишке, приехавшем в деревню к бабушке и дедушке на зимние каникулы на Окинаву. Там он сталкивается с "суровой" деревенской жизнью: двух его любимых коз собираются забить на мясо, но одной удается сбежать, и пацан отправляется в погоню в надежде спасти ее от ножа мясника...
Доп. информация: Информация о фильме на IMDB - http://www.imdb.com/title/tt1803230
Релиз кинопортала Близзардкид.
Режиссером этого фильма является 14-летний (на момент съемок) Рюго Накамура. Каким образом 14-летний пацан стал режиссером?
Рассказывают, что Рюго начал снимать кино с помощью отцовской видеокамеры после того, как папа умер в результате несчастного случая. Мальчик уже создал более 30 короткометражных фильмов. Один из них, Yagi no Sanpo (Прогулка козы), в 2009 году принял участие в презентационном конкурсе департамента туризма Окинавы и получил великолепные отзывы критиков. Настолько великолепные, что на основе короткометражки был написан сценарий для 80-минутного художественного фильма, а затем этот самый фильм был снят. Конечно, снимала его профессиональная съемочная группа, но руководил ею 14-летний режиссер.
Сэмпл: http://multi-up.com/930108
Качество видео: DVDRip
Формат видео: AVI
Видео: 720x416 (1.73:1), 23.976 fps, XviD MPEG-4 ~2126 kbps avg, 0.30 bit/pixel
Аудио: 48 kHz, MPEG Layer 3, 2 ch, ~192.00 kbps avg
Формат субтитров: softsub (SRT)

MediaInfo

Общее
Полное имя : H:\SEED\Yagi No Bouken (The Catcher on the Shore) (2010) rus\Yagi No Bouken (The Catcher on the Shore) (2010) rus.avi
Формат : AVI
Формат/Информация : Audio Video Interleave
Размер файла : 1,37 Гбайт
Продолжительность : 1 ч. 24 м.
Общий поток : 2325 Кбит/сек
Программа кодирования : VirtualDubMod 1.5.4.1 (build 2178/release)
Библиотека кодирования : VirtualDubMod build 2178/release
Видео
Идентификатор : 0
Формат : MPEG-4 Visual
Профиль формата : Advanced Simple@L5
Параметр BVOP формата : Нет
Параметр QPel формата : Нет
Параметр GMC формата : Без точки перехода
Параметр матрицы формата : Выборочная
Идентификатор кодека : XVID
Идентификатор кодека/Подсказка : XviD
Продолжительность : 1 ч. 24 м.
Битрейт : 2126 Кбит/сек
Ширина : 720 пикселей
Высота : 416 пикселей
Соотношение сторон : 1,731
Частота кадров : 23,976 кадра/сек
Цветовое пространство : YUV
Субдискретизация насыщенности : 4:2:0
Битовая глубина : 8 бит
Тип развёртки : Прогрессивная
Метод сжатия : С потерями
Бит/(Пиксели*Кадры) : 0.296
Размер потока : 1,25 Гбайт (91%)
Библиотека кодирования : XviD 58
Аудио
Идентификатор : 1
Формат : MPEG Audio
Версия формата : Version 1
Профиль формата : Layer 3
Режим : Joint stereo
Расширение режима : MS Stereo
Идентификатор кодека : 55
Идентификатор кодека/Подсказка : MP3
Продолжительность : 1 ч. 24 м.
Вид битрейта : Постоянный
Битрейт : 192 Кбит/сек
Каналы : 2 канала
Частота : 48,0 КГц
Метод сжатия : С потерями
Размер потока : 116 Мбайт (8%)
Выравнивание : Соединение по промежуткам
Продолжительность промежутка : 83 мс. (2,00 видеокадра)
Время предзагрузки промежутка : 504 мс.
Библиотека кодирования : LAME3.97
Настройки программы : -m j -V 4 -q 2 -lowpass 18.6 -b 192
Язык : Japanese

Образец субтитров

1
00:01:14,321 --> 00:01:22,558
ПРИКЛЮЧЕНИЯ КОЗЫ
2
00:03:42,402 --> 00:03:43,426
Мам!
3
00:03:46,640 --> 00:03:48,471
Мам, я поехал.
4
00:03:48,675 --> 00:03:51,041
О, боже, рано же еще!
5
00:03:51,611 --> 00:03:53,511
Ты все взял?
6
00:03:53,914 --> 00:03:55,006
Да.
7
00:03:58,218 --> 00:03:59,685
А деньги где?
8
00:04:01,688 --> 00:04:03,679
На столе.
9
00:04:04,958 --> 00:04:06,858
Ладно. Пока!
10
00:04:20,840 --> 00:04:23,331
Перекуси по дороге.
11
00:04:24,244 --> 00:04:26,303
Купи рисовый шарик.
12
00:04:26,446 --> 00:04:29,847
Рис укрепляет тело.
13
00:04:30,116 --> 00:04:31,606
Будь осторожней!
14
00:04:36,489 --> 00:04:38,753
Позвони мне, когда доедешь.
15
00:05:39,953 --> 00:05:41,614
Доброе утро!
16
00:06:16,823 --> 00:06:20,156
Простите.
Вы едете в Наго?
17
00:06:26,199 --> 00:06:29,327
- Ты едешь в Наго?
- Да, в Уфудомари.
18
00:06:29,502 --> 00:06:32,437
Тебе нужно будет пересесть в Наго.
19
00:06:33,073 --> 00:06:36,372
На 66-й маршрут до Накиджина.
20
00:06:36,976 --> 00:06:39,137
- Ты один?
- Да.

Скриншот c названием фильма

Скачать

Скачать торрент! Приключения козы / Yagi no Bouken / The Catcher on the Shore (Рюго Накамура / Ryugo Nakamura) [2010, Япония, драма, DVDRip] Sub Rus + Orig Jap

Как скачивать? · Что такое торрент? · Рейтинг и ограничения

Сайт не распространяет и не хранит электронные версии произведений, а лишь предоставляет доступ к создаваемому пользователями каталогу ссылок на торрент-файлы, которые содержат только списки хеш-сумм

[Профиль] [ЛС]
Показать сообщения:    
Ответить на тему

Текущее время: Сегодня 21:28

Часовой пояс: GMT + 4



Вы не можете начинать темы
Вы не можете отвечать на сообщения
Вы не можете редактировать свои сообщения
Вы не можете удалять свои сообщения
Вы не можете голосовать в опросах
Вы не можете прикреплять файлы к сообщениям
Вы не можете скачивать файлы