Путешественники: Полиция Миров / Travelers: Dimension Police (Койти Сакамото / Koichi Sakamoto) [2013, Япония, Гонконг, Тайвань, Фантастика, Боевик, Приключения, DVDRip] DVO

Ответить на тему
 
Автор Сообщение

user ®

Стаж: 13 лет

Сообщений: 15071

Пост Пост: #1 от 04-Дек-2013 20:00

[Цитировать]

Путешественники: Полиция Миров / Travelers: Dimension Police
Страна: Япония, Гонконг, Тайвань
Жанр: Фантастика,Боевик,Приключения
Год выпуска: 2013
Продолжительность: 01:20:07
Перевод: Любительский (двухголосый закадровый) [DeadSno & den904]
Cубтитры: нет
Оригинальная аудиодорожка: нет
Режиссер: Койти Сакамото / Koichi Sakamoto
В ролях: Нао Нагасава, Аюми Киносита, Юко Такаяма, Кэндзи Эбисава, Санаэ Хитоми, Кодзи Накамура, Кэнтаро Симадзу, Хидеки Сугигути, Кохэй Ямамото
Описание: Лучший агент полиции Аи отправляется в параллельное измерение, чтобы поймать преступника из другого мира. Но когда она уже почти настигла его, появляется ее бывшая напарница Юи, которая теперь является членом террористической организации…
Сэмпл: http://multi-up.com/929389
Качество видео: DVDRip
Формат видео: AVI
Видео: 720x400,23.810 fps,XviD MPEG-4,2050 kbps avg,0.30 bit/pixel
Аудио: 48 kHz,AC3 Dolby Digital,2/0 (L,R) ch,192 kbps | Russian
Аудио 2: 48 kHz,AC3 Dolby Digital,2/0 (L,R) ch,192 kbps | Japan

MediaInfo

Общее
Полное имя : D:\Filmi\Travelers. Dimension Police 2013 DVDRip.avi
Формат : AVI
Формат/Информация : Audio Video Interleave
Размер файла : 1,37 Гбайт
Продолжительность : 1 ч. 20 м.
Общий поток : 2448 Кбит/сек
Видео
Идентификатор : 0
Формат : MPEG-4 Visual
Профиль формата : Advanced Simple@L5
Параметр BVOP формата : 1
Параметр QPel формата : Нет
Параметр GMC формата : Без точки перехода
Параметр матрицы формата : Default (H.263)
Идентификатор кодека : XVID
Идентификатор кодека/Подсказка : XviD
Продолжительность : 1 ч. 20 м.
Битрейт : 2050 Кбит/сек
Ширина : 720 пикселей
Высота : 400 пикселей
Соотношение сторон : 16:9
Частота кадров : 23,810 кадра/сек
Частота кадров в оригинале : 23,813 кадра/сек
Цветовое пространство : YUV
Субдискретизация насыщенности : 4:2:0
Битовая глубина : 8 бит
Бит/(Пиксели*Кадры) : 0.299
Размер потока : 1,15 Гбайт (84%)
Библиотека кодирования : XviD 57
Аудио #1
Идентификатор : 1
Формат : AC-3
Формат/Информация : Audio Coding 3
Расширение режима : CM (complete main)
Параметр Endianness формата : Big
Идентификатор кодека : 2000
Продолжительность : 1 ч. 20 м.
Вид битрейта : Постоянный
Битрейт : 192 Кбит/сек
Каналы : 2 канала
Расположение каналов : Front: L R
Частота : 48,0 КГц
Битовая глубина : 16 бит
Размер потока : 110 Мбайт (8%)
Выравнивание : Разделение по промежуткам
Продолжительность промежутка : 42 мс. (1,00 видеокадр)
Время предзагрузки промежутка : 500 мс.
Аудио #2
Идентификатор : 2
Формат : AC-3
Формат/Информация : Audio Coding 3
Расширение режима : CM (complete main)
Параметр Endianness формата : Big
Идентификатор кодека : 2000
Продолжительность : 1 ч. 20 м.
Вид битрейта : Постоянный
Битрейт : 192 Кбит/сек
Каналы : 2 канала
Расположение каналов : Front: L R
Частота : 48,0 КГц
Битовая глубина : 16 бит
Размер потока : 110 Мбайт (8%)
Выравнивание : Разделение по промежуткам
Продолжительность промежутка : 42 мс. (1,00 видеокадр)
Время предзагрузки промежутка : 500 мс.

Скриншот c названием фильма

Скриншоты

Скачать

Скачать торрент! Путешественники: Полиция Миров / Travelers: Dimension Police (Койти Сакамото / Koichi Sakamoto) [2013, Япония, Гонконг, Тайвань, Фантастика, Боевик, Приключения, DVDRip] DVO

Как скачивать? · Что такое торрент? · Рейтинг и ограничения

Сайт не распространяет и не хранит электронные версии произведений, а лишь предоставляет доступ к создаваемому пользователями каталогу ссылок на торрент-файлы, которые содержат только списки хеш-сумм

[Профиль] [ЛС]
Показать сообщения:    
Ответить на тему

Текущее время: Сегодня 17:04

Часовой пояс: GMT + 4



Вы не можете начинать темы
Вы не можете отвечать на сообщения
Вы не можете редактировать свои сообщения
Вы не можете удалять свои сообщения
Вы не можете голосовать в опросах
Вы не можете прикреплять файлы к сообщениям
Вы не можете скачивать файлы