Про уродов и людей (Алексей Балабанов) [1998, драма, DVDRip]

Ответить на тему
 
Автор Сообщение

user ®

Стаж: 7 лет 7 месяцев

Сообщений: 20008

Пост Пост: #1 от 02-Дек-2013 19:45

[Цитировать]

Про уродов и людей
Жанр: драма
Год выпуска: 1998
Продолжительность: 01:29:00
-
Режиссёр: Алексей Балабанов
В ролях: Сергей Маковецкий, Виктор Сухоруков, Анжелика Неволина, Динара Друкарова, Алексей Дё, Чингиз Цыдендамбаев, Вадим Прохоров, Александр Мезенцев, Игорь Шибанов, Дарья Лесникова, Илья Шакунов, Юрий Гальцев
-
Описание: Начало двадцатого века. Две благополучные с виду семьи. И загадочный Иоган, владелец фотостудии, в подвальном помещении которой создан некий фотографический театр Маркиза де Сада. Где снимаются фотографические открытки с униженной наготой человеческого тела, вызывающие похоть и злорадствующее торжество власти. Взгляд фотографа, умеющий увидеть в девочке ангельские кудри и милую улыбку, и тот же взгляд, разлагающий тело, взгляд порнографа. Раз за разом Иоганн разрушает благополучие семей и превращает обычных людей в уродов, охваченных ароматом порока…
-

-
Качество видео: DVDRip (Исходник DVD5)
Формат видео: AVI
Видео: 704x416 (1.69:1), 25 fps, XviD build 73 ~2147 kbps avg, 0.29 bit/pixel
Аудио: 48 kHz, AC3 Dolby Digital, 2/0 (L,R) ch, ~192 kbps

MediaInfo

General
Complete name : D:\Релизы\Про уродов и людей.1998.DVDRip.XviD.AC3.avi
Format : AVI
Format/Info : Audio Video Interleave
File size : 1.46 GiB
Duration : 1h 29mn
Overall bit rate : 2 349 Kbps
Writing application : VirtualDubMod 1.5.10.2 (build 2540/release)
Writing library : VirtualDubMod build 2540/release
Video
ID : 0
Format : MPEG-4 Visual
Format profile : Advanced Simple@L5
Format settings, BVOP : 1
Format settings, QPel : No
Format settings, GMC : No warppoints
Format settings, Matrix : Custom
Codec ID : XVID
Codec ID/Hint : XviD
Duration : 1h 29mn
Bit rate : 2 147 Kbps
Width : 704 pixels
Height : 416 pixels
Display aspect ratio : 1.692
Frame rate : 25.000 fps
Color space : YUV
Chroma subsampling : 4:2:0
Bit depth : 8 bits
Scan type : Progressive
Compression mode : Lossy
Bits/(Pixel*Frame) : 0.293
Stream size : 1.33 GiB (91%)
Writing library : XviD 73
Audio
ID : 1
Format : AC-3
Format/Info : Audio Coding 3
Mode extension : CM (complete main)
Format settings, Endianness : Big
Codec ID : 2000
Duration : 1h 28mn
Bit rate mode : Constant
Bit rate : 192 Kbps
Channel(s) : 2 channels
Channel positions : Front: L R
Sampling rate : 48.0 KHz
Bit depth : 16 bits
Compression mode : Lossy
Stream size : 122 MiB (8%)
Alignment : Split accross interleaves
Interleave, duration : 40 ms (1.00 video frame)
Interleave, preload duration : 500 ms

Скриншоты

Скачать

Скачать торрент!

Как скачивать? · Что такое торрент? · Рейтинг и ограничения

Сайт не распространяет и не хранит электронные версии произведений, а лишь предоставляет доступ к создаваемому пользователями каталогу ссылок на торрент-файлы, которые содержат только списки хеш-сумм

[Профиль] [ЛС]
Показать сообщения:    
Ответить на тему

Текущее время: Сегодня 20:24

Часовой пояс: GMT + 4



Вы не можете начинать темы
Вы не можете отвечать на сообщения
Вы не можете редактировать свои сообщения
Вы не можете удалять свои сообщения
Вы не можете голосовать в опросах
Вы не можете прикреплять файлы к сообщениям
Вы не можете скачивать файлы