Странный Томас / Odd Thomas (Стивен Соммерс / Stephen Sommers) [2013, США, триллер, детектив, фэнтези, боевик, BDRemux 1080p] [GER Transfer] MVO + DVO + 2x Sub (Rus, Eng) + Original Eng

Ответить на тему
 
Автор Сообщение

user ®

Стаж: 7 лет 7 месяцев

Сообщений: 20008

Пост Пост: #1 от 01-Дек-2013 16:00

[Цитировать]

Странный Томас / Odd Thomas
Страна: США
Жанр: триллер, детектив, фэнтези, боевик
Год выпуска: 2013
Продолжительность: 01:36:35
Перевод 1: Профессиональный (многоголосый закадровый) [Товарищество 110/17] перевод [Константин Кривоногов]
Перевод 2: Любительский (двухголосый закадровый) den904 & DeadSno перевод Janetta
Cубтитры: русские [COLOR], английские
Оригинальная аудиодорожка: английский
-
Режиссер: Стивен Соммерс / Stephen Sommers
В ролях: Антон Ельчин, Эддисон Тимлин, Гугу Мбата-Роу, Нико Торторелла, Пэттон Освальт, Уиллем Дефо, Эшли Соммерс, Леонор Варела, Мэттью Пейдж, Кэйси Мессер
-
Описание: Главный герой наделен даром (или проклятием) видеть мертвецов. Каждый их визит становится началом очередной охоты на убийцу — призраки ведут Томаса на помощь тем, кому еще рано расставаться с жизнью. О способности героя знают только самые близкие друзья и любимая девушка. С их помощью ему предстоит отвести большую беду от маленького городка в центре пустыни Мохаве.

Тип релиза: BDRemux 1080p
Контейнер: MKV
Видео: MPEG-4 AVC / NTSC 16:9 / 1920x1080 (2,35:1) / 34502 kbps / 24 fps / High@L4.1
Аудио 1: Russian / AC3 / 48 kHz / 5.1 Ch / 448 kbps / 16 bit / MVO
Аудио 2: Russian / AC3 / 48 kHz / 5.1 Ch / 448 kbps / 16 bit / DVO
Аудио 3: English / DTS-HD Master Audio / 5.1 Ch / 48 kHz / 2170 kbps / 16-bit (DTS Core: 5.1 Ch / 48 kHz / 1509 kbps / 16-bit) / Original
Формат субтитров: softsub (SRT)
Навигация по главам: есть

Доп.инфо

В озвучке от Товарищество 110/17 роли озвучивали: Михаил Суслов, Константин Погодаев, Владимир Чистохин, Алексей Фокин, Анастасия Флигина, Светлана Чистохина.

MediaInfo

Общее
Уникальный идентификатор : 170210817061782205847627349872882811424 (0x800D69339CBC56D88615930C230D0220)
Полное имя : W:\BDRemux 1080p\Odd Thomas.2013.BDRemux.1080p.mkv
Формат : Matroska
Версия формата : Version 4 / Version 2
Размер файла : 25,3 Гбайт
Продолжительность : 1 ч. 36 м.
Режим общего битрейта : Переменный
Общий поток : 37,5 Мбит/сек
Дата кодирования : UTC 2013-12-01 05:25:42
Программа кодирования : mkvmerge v6.5.0 ('Isn't she lovely') built on Oct 20 2013 12:50:05
Библиотека кодирования : libebml v1.3.0 + libmatroska v1.4.1
Видео
Идентификатор : 1
Формат : AVC
Формат/Информация : Advanced Video Codec
Профиль формата : High@L4.1
Параметр CABAC формата : Да
Параметр ReFrames формата : 4 кадра
Идентификатор кодека : V_MPEG4/ISO/AVC
Продолжительность : 1 ч. 36 м.
Вид битрейта : Переменный
Максимальный битрейт : 37,0 Мбит/сек
Ширина : 1920 пикселей
Высота : 1080 пикселей
Соотношение сторон : 16:9
Режим частоты кадров : Постоянный
Частота кадров : 24,000 кадра/сек
Цветовое пространство : YUV
Субдискретизация насыщенности : 4:2:0
Битовая глубина : 8 бит
Тип развёртки : Прогрессивная
Язык : English
Default : Да
Forced : Нет
Аудио #1
Идентификатор : 2
Формат : AC-3
Формат/Информация : Audio Coding 3
Расширение режима : CM (complete main)
Параметр Endianness формата : Big
Идентификатор кодека : A_AC3
Продолжительность : 1 ч. 36 м.
Вид битрейта : Постоянный
Битрейт : 448 Кбит/сек
Каналы : 6 каналов
Расположение каналов : Front: L C R, Side: L R, LFE
Частота : 48,0 КГц
Битовая глубина : 16 бит
Метод сжатия : С потерями
Размер потока : 309 Мбайт (1%)
Заголовок : MVO
Язык : Russian
Default : Да
Forced : Нет
Аудио #2
Идентификатор : 3
Формат : AC-3
Формат/Информация : Audio Coding 3
Расширение режима : CM (complete main)
Параметр Endianness формата : Big
Идентификатор кодека : A_AC3
Продолжительность : 1 ч. 36 м.
Вид битрейта : Постоянный
Битрейт : 448 Кбит/сек
Каналы : 6 каналов
Расположение каналов : Front: L C R, Side: L R, LFE
Частота : 48,0 КГц
Битовая глубина : 16 бит
Метод сжатия : С потерями
Размер потока : 309 Мбайт (1%)
Заголовок : VO
Язык : Russian
Default : Нет
Forced : Нет
Аудио #3
Идентификатор : 4
Формат : DTS
Формат/Информация : Digital Theater Systems
Профиль формата : MA / Core
Режим : 16
Параметр Endianness формата : Big
Идентификатор кодека : A_DTS
Продолжительность : 1 ч. 36 м.
Вид битрейта : Переменный
Битрейт : Неизвестно / 1509 Кбит/сек
Каналы : 6 каналов
Расположение каналов : Front: L C R, Side: L R, LFE
Частота : 48,0 КГц
Битовая глубина : 16 бит
Метод сжатия : Без потерь / Lossy
Заголовок : Original
Язык : English
Default : Нет
Forced : Нет
Текст #1
Идентификатор : 5
Формат : UTF-8
Идентификатор кодека : S_TEXT/UTF8
Идентификатор кодека/Информация : UTF-8 Plain Text
Заголовок : RUS / COLOR
Язык : Russian
Default : Нет
Forced : Нет
Текст #2
Идентификатор : 6
Формат : UTF-8
Идентификатор кодека : S_TEXT/UTF8
Идентификатор кодека/Информация : UTF-8 Plain Text
Заголовок : Original
Язык : English
Default : Нет
Forced : Нет
Меню
00:00:00.000 : en:
00:07:39.291 : en:
00:18:30.000 : en:
00:26:02.166 : en:
00:32:17.125 : en:
00:43:37.333 : en:
00:52:03.041 : en:
00:58:55.125 : en:
01:05:16.125 : en:
01:13:31.125 : en:
01:21:57.666 : en:
01:29:42.291 : en:

Скриншоты

Скачать

Скачать торрент!

Как скачивать? · Что такое торрент? · Рейтинг и ограничения

Сайт не распространяет и не хранит электронные версии произведений, а лишь предоставляет доступ к создаваемому пользователями каталогу ссылок на торрент-файлы, которые содержат только списки хеш-сумм

[Профиль] [ЛС]
Показать сообщения:    
Ответить на тему

Текущее время: Сегодня 06:11

Часовой пояс: GMT + 4



Вы не можете начинать темы
Вы не можете отвечать на сообщения
Вы не можете редактировать свои сообщения
Вы не можете удалять свои сообщения
Вы не можете голосовать в опросах
Вы не можете прикреплять файлы к сообщениям
Вы не можете скачивать файлы