Вздох / Elbowroom / Soom (Хам Кён-Рок / Ham Kyoung-rock) [2010, Южная Корея, Драма, DVDRip] VO D.I.M.

Ответить на тему
 
Автор Сообщение

user ®

Стаж: 11 лет

Сообщений: 15151

Пост Пост: #1 от 30-Ноя-2013 18:45

[Цитировать]

Вздох / Elbowroom / Soom
Страна: Южная Корея
Жанр: Драма
Год выпуска: 2010
Продолжительность: 1:29:15
Перевод: Одноголосый закадровый D.I.M.
Cубтитры: нет
Режиссер: Хам Кён-Рок / Ham Kyoung-rock
В ролях: Сок-Ён Хон / Seok-yeon Hong
Чжи-Вон Пак / Ji-won Park
Ён-Сук Шин / Yeon-Sook Shin
Описание: Юную Су-Хи в пятилетнем возрасте бросает её мать.
И её отправляют в учреждение для инвалидов.
Она прожила там очень долгое время.
Там она повстречала Мин-Су и у них даже есть там своя тайная комната.
Но однажды женщина-волонтёр замечает у Су-хи
увеличившийся в размере живот....
Это семьдесят шестой фильм с моим переводом и озвучкой, выложенный здесь.
Любители душевного кино могут найти для себя что-то интересное.
Сэмпл: http://multi-up.com/928120
Качество видео: DVDRip
Формат видео: AVI
Видео: 720*416 (16:9), 29,970 fps, MPEG-4 Visual (XviD) ~ 1959 kbps avg, 0.218 bit/pixel
Аудио: MPEG Audio Layer 3, 48000Hz, stereo, 128kbps

MediaInfo

Общее
Полное имя : D:\TORENT\РАЗДАЧИ (РИПЫ)\ELBOWROOM.avi
Формат : AVI
Формат/Информация : Audio Video Interleave
Размер файла : 1,31 Гбайт
Продолжительность : 1 ч. 29 м.
Общий поток : 2099 Кбит/сек
Программа кодирования : VirtualDubModRus 1.5.10.2 (build 2542/release)
Библиотека кодирования : VirtualDubMod build 2542/release
Видео
Идентификатор : 0
Формат : MPEG-4 Visual
Профиль формата : Advanced Simple@L5
Параметр BVOP формата : Нет
Параметр QPel формата : Нет
Параметр GMC формата : Без точки перехода
Параметр матрицы формата : Выборочная
Идентификатор кодека : XVID
Идентификатор кодека/Подсказка : XviD
Продолжительность : 1 ч. 29 м.
Битрейт : 1959 Кбит/сек
Ширина : 720 пикс.
Высота : 416 пикс.
Соотношение сторон : 16:9
Частота кадров : 29,970 кадр/сек
Цветовое пространство : YUV
Подвыборка цветности : 4:2:0
Битовая глубина : 8 бит
Тип развёртки : Прогрессивная
Метод сжатия : С потерями
Бит/(Пиксели*Кадры) : 0.218
Размер потока : 1,22 Гбайт (93%)
Библиотека кодирования : XviD 63
Аудио
Идентификатор : 1
Формат : MPEG Audio
Версия формата : Version 1
Профиль формата : Layer 3
Режим : Joint stereo
Расширение режима : MS Stereo
Идентификатор кодека : 55
Идентификатор кодека/Подсказка : MP3
Продолжительность : 1 ч. 29 м.
Вид битрейта : Постоянный
Битрейт : 128 Кбит/сек
Канал(ы) : 2 канала(ов)
Частота : 48,0 КГц
Метод сжатия : С потерями
Размер потока : 81,7 Мбайт (6%)
Выравнивание : Соединение по промежуткам
Продолжительность промежутка : 33 мс. (1,00 видеокадр)
Время предзагрузки промежутка : 504 ms
Язык : Korean

Скриншот c названием фильма

Скриншоты

Скачать

Скачать торрент! Вздох / Elbowroom / Soom (Хам Кён-Рок / Ham Kyoung-rock) [2010, Южная Корея, Драма, DVDRip] VO D.I.M.

Как скачивать? · Что такое торрент? · Рейтинг и ограничения

Сайт не распространяет и не хранит электронные версии произведений, а лишь предоставляет доступ к создаваемому пользователями каталогу ссылок на торрент-файлы, которые содержат только списки хеш-сумм

[Профиль] [ЛС]
Показать сообщения:    
Ответить на тему

Текущее время: Сегодня 02:49

Часовой пояс: GMT + 4



Вы не можете начинать темы
Вы не можете отвечать на сообщения
Вы не можете редактировать свои сообщения
Вы не можете удалять свои сообщения
Вы не можете голосовать в опросах
Вы не можете прикреплять файлы к сообщениям
Вы не можете скачивать файлы