Tpeугольник / Тriаnglе (Кристофер Смит / Christopher Smith) [2009, Великобритания, Австралия, детектив, триллер, ужасы, BDRemux 1080p] DVO (R5) + MVO (ТВ-3) + AVO (Ю. Немахов) + Sub Rus, Eng + Original Eng

Ответить на тему
 
Автор Сообщение

user ®

Стаж: 7 лет 7 месяцев

Сообщений: 20008

Пост Пост: #1 от 29-Ноя-2013 20:50

[Цитировать]

Треугольник / Triangle Страна: Великобритания, Австралия
Жанр: детектив, триллер, ужасы
Год выпуска: 2009
Продолжительность: 01:38:52
Перевод 1: Профессиональный (двухголосый закадровый) R5
Перевод 2: Профессиональный (многоголосый закадровый) ТВ-3
Перевод 3: Авторский (одноголосый закадровый) Ю. Немахов
Cубтитры: русские (notabenoid), английские
Оригинальная аудиодорожка: английская
Режиссер: Кристофер Смит / Christopher Smith
В ролях: Мелисса Джордж, Джошуа МакИвор, Джек Тейлор, Майкл Дорман, Генри Никсон, Рейчал Карпани, Эмма Ланг, Лиам Хемсворт, Брайан Пробетс
Описание: Грег приглашает свою подругу Джесс, молодую мать-одиночку, провести день на яхте в кругу своих друзей. Начавшийся сильный шторм переворачивает судно, и оставшиеся в живых вынуждены дожидаться помощи, цепляясь за перевернутый корпус яхты. Спасение приходит в виде огромного океанического лайнера. Судно оказывается пустым, часы на борту остановились. Но они не одни на этом огромном корабле - за ними кто-то неустанно следит...
Тип релиза: BDRemux 1080p
Контейнер: MKV
Видео: MPEG-4 AVC, 1920x812 (2.35:1), 24.000 fps, ~24499 kbps
Аудио: Russian AC3 5.1 ch, 48 kHz, 16-bit, 448.00 kbps - R5
Аудио 2: Russian AC3 5.1 ch, 48 kHz, 16-bit, 448.00 kbps - ТВ-3
Аудио 3: Russian DTS-HD MA 5.1 ch, 48 kHz, 16-bit, 2242 kbps (DTS Core: 5.1, 48 kHz, 1509 kbps, 16-bit) - Ю.Немахов
Аудио 4: English DTS-HD MA 5.1 ch, 48 kHz, 16-bit, 2249 kbps (DTS Core: 5.1, 48 kHz, 1509 kbps, 16-bit)
Аудио 5: English AC3 2.0 ch, 48 kHz, 16-bit, 192 kbps - Commentary
Аудио 6: English AC3 2.0 ch, 48 kHz, 16-bit, 192 kbps - Commentary
Формат субтитров: softsub (SRT)
Навигация по главам: есть

Сэмпл

MediaInfo

C:\Видео\Triangle - Треугольник (2009) BDRemux.mkv
General
Unique ID : 215918682885779641573274915771751628911 (0xA2706CFA2A9E231DA93B8701A2DC806F)
Complete name : C:\Видео\Triangle - Треугольник (2009) BDRemux.mkv
Format : Matroska
Format version : Version 4 / Version 2
File size : 20.9 GiB
Duration : 1h 38mn
Overall bit rate mode : Variable
Overall bit rate : 30.3 Mbps
Movie name : Triangle (2009) / Треугольник
Encoded date : UTC 2013-11-18 13:49:54
Writing application : mkvmerge v6.5.0 ('Isn't she lovely') built on Oct 20 2013 12:50:05
Writing library : libebml v1.3.0 + libmatroska v1.4.1
Attachment : Yes
Video #1
ID : 1
Format : AVC
Format/Info : Advanced Video Codec
Format profile : High@L4.1
Format settings, CABAC : Yes
Format settings, ReFrames : 4 frames
Codec ID : V_MPEG4/ISO/AVC
Duration : 1h 38mn
Bit rate mode : Variable
Maximum bit rate : 38.9 Mbps
Width : 1 920 pixels
Height : 1 080 pixels
Display aspect ratio : 16:9
Frame rate mode : Constant
Frame rate : 24.000 fps
Standard : NTSC
Color space : YUV
Chroma subsampling : 4:2:0
Bit depth : 8 bits
Scan type : Progressive
Default : Yes
Forced : No
Color primaries : BT.709
Transfer characteristics : BT.709
Matrix coefficients : BT.709
Audio #2
ID : 2
Format : AC-3
Format/Info : Audio Coding 3
Mode extension : CM (complete main)
Format settings, Endianness : Big
Codec ID : A_AC3
Duration : 1h 38mn
Bit rate mode : Constant
Bit rate : 448 Kbps
Channel count : 6 channels
Channel positions : Front: L C R, Side: L R, LFE
Sampling rate : 48.0 KHz
Bit depth : 16 bits
Compression mode : Lossy
Stream size : 317 MiB (1%)
Title : DVO (R5)
Language : Russian
Default : Yes
Forced : No
Audio #3
ID : 3
Format : AC-3
Format/Info : Audio Coding 3
Mode extension : CM (complete main)
Format settings, Endianness : Big
Codec ID : A_AC3
Duration : 1h 38mn
Bit rate mode : Constant
Bit rate : 448 Kbps
Channel count : 6 channels
Channel positions : Front: L C R, Side: L R, LFE
Sampling rate : 48.0 KHz
Bit depth : 16 bits
Compression mode : Lossy
Stream size : 317 MiB (1%)
Title : MVO (TB-3)
Language : Russian
Default : No
Forced : No
Audio #4
ID : 4
Format : DTS
Format/Info : Digital Theater Systems
Format profile : MA / Core
Mode : 16
Format settings, Endianness : Big
Codec ID : A_DTS
Duration : 1h 38mn
Bit rate mode : Variable
Bit rate : Unknown / 1 509 Kbps
Channel count : 6 channels
Channel positions : Front: L C R, Side: L R, LFE
Sampling rate : 48.0 KHz
Bit depth : 16 bits
Compression mode : Lossless / Lossy
Title : VO (Ю.Немахов)
Language : Russian
Default : No
Forced : No
Audio #5
ID : 5
Format : DTS
Format/Info : Digital Theater Systems
Format profile : MA / Core
Mode : 16
Format settings, Endianness : Big
Codec ID : A_DTS
Duration : 1h 38mn
Bit rate mode : Variable
Bit rate : Unknown / 1 509 Kbps
Channel count : 6 channels
Channel positions : Front: L C R, Side: L R, LFE
Sampling rate : 48.0 KHz
Bit depth : 16 bits
Compression mode : Lossless / Lossy
Title : Original
Language : English
Default : No
Forced : No
Audio #6
ID : 6
Format : AC-3
Format/Info : Audio Coding 3
Mode extension : CM (complete main)
Format settings, Endianness : Big
Codec ID : A_AC3
Duration : 1h 38mn
Bit rate mode : Constant
Bit rate : 192 Kbps
Channel count : 2 channels
Channel positions : Front: L R
Sampling rate : 48.0 KHz
Bit depth : 16 bits
Compression mode : Lossy
Stream size : 136 MiB (1%)
Title : Commentary
Language : English
Default : No
Forced : No
Audio #7
ID : 7
Format : AC-3
Format/Info : Audio Coding 3
Mode extension : CM (complete main)
Format settings, Endianness : Big
Codec ID : A_AC3
Duration : 1h 38mn
Bit rate mode : Constant
Bit rate : 192 Kbps
Channel count : 2 channels
Channel positions : Front: L R
Sampling rate : 48.0 KHz
Bit depth : 16 bits
Compression mode : Lossy
Stream size : 136 MiB (1%)
Title : Commentary
Language : English
Default : No
Forced : No
Text #8
ID : 8
Format : UTF-8
Codec ID : S_TEXT/UTF8
Codec ID/Info : UTF-8 Plain Text
Title : notabenoid
Language : Russian
Default : No
Forced : No
Text #9
ID : 9
Format : UTF-8
Codec ID : S_TEXT/UTF8
Codec ID/Info : UTF-8 Plain Text
Language : English
Default : No
Forced : No
Menu
00:00:00.000 : en:Chapter 1
00:08:41.457 : en:Chapter 2
00:19:36.040 : en:Chapter 3
00:27:10.500 : en:Chapter 4
00:33:28.208 : en:Chapter 5
00:38:16.791 : en:Chapter 6
00:43:46.375 : en:Chapter 7
00:50:34.458 : en:Chapter 8
00:58:57.666 : en:Chapter 9
01:01:51.083 : en:Chapter 10
01:09:19.375 : en:Chapter 11
01:19:43.666 : en:Chapter 12
01:26:37.791 : en:Chapter 13
01:29:16.707 : en:Chapter 14
01:31:11.582 : en:Chapter 15
01:34:19.375 : en:Chapter 16

Скриншоты

Скачать

Скачать торрент!

Как скачивать? · Что такое торрент? · Рейтинг и ограничения

Сайт не распространяет и не хранит электронные версии произведений, а лишь предоставляет доступ к создаваемому пользователями каталогу ссылок на торрент-файлы, которые содержат только списки хеш-сумм

[Профиль] [ЛС]
Показать сообщения:    
Ответить на тему

Текущее время: Сегодня 12:51

Часовой пояс: GMT + 4



Вы не можете начинать темы
Вы не можете отвечать на сообщения
Вы не можете редактировать свои сообщения
Вы не можете удалять свои сообщения
Вы не можете голосовать в опросах
Вы не можете прикреплять файлы к сообщениям
Вы не можете скачивать файлы