Домовой (Карен Оганесян) [2008, Триллер, DVDRip]

Ответить на тему
 
Автор Сообщение

user ®

Стаж: 7 лет 7 месяцев

Сообщений: 20008

Пост Пост: #1 от 28-Ноя-2013 11:05

[Цитировать]

Домовой
-Год выпуска: 2008
Страна: Россия
Жанр: Триллер
Продолжительность: 01:44:39-Режиссер: Карен Оганесян
Продюссер: Сергей Даниелян, Рубен Дишдишян, Анна Меликян
Сценарий: Олег Маловичко, Сергей Юдаков-Бюджет: $3 000 000
Премьера в мире: 6 сентября 2008- 6.90 (844) -В ролях: Константин Хабенский, Владимир Машков, Чулпан Хаматова, Армен Джигарханян, Виталий Кищенко, Анатолий Семенов, Рамиль Сабитов, Ольга Сухорукова, Олег Чудницов, Олег Петровский-Описание: Автор бульварных детективов Антон Праченко переживает творческий кризис. Выйти из него ему весьма необычным способом помогает наемный убийца по прозвищу Домовой, который на его глазах безжалостно расстреливает машину с двумя людьми. Киллер становится его идейным вдохновителем, жестко и наглядно открывающим ему суровую правду жизни...-Качество: DVDRip
Озвучивание: Оригинал-Формат: AVI
Видео кодек: XviD
Аудио кодек: AC3
Видео: XviD 720x304 25fps 1536 kbps
Аудио: Dolby AC3 48000Hz 6ch 448 kbps
-Сэмпл-

MediaInfo

Format : AVI
Format/Info : Audio Video Interleave
File size : 1.46 GiB
Duration : 1h 44mn
Overall bit rate : 1 995 Kbps
Writing application : VirtualDubMod 1.5.10.2 (build 2540/release)
Writing library : VirtualDubMod build 2540/release
Video
ID : 0
Format : MPEG-4 Visual
Format profile : Advanced Simple@L5
Format settings, BVOP : 1
Format settings, QPel : No
Format settings, GMC : No warppoints
Format settings, Matrix : Default (MPEG)
Codec ID : XVID
Codec ID/Hint : XviD
Duration : 1h 44mn
Bit rate : 1 537 Kbps
Width : 720 pixels
Height : 304 pixels
Display aspect ratio : 2.35:1
Frame rate : 25.000 fps
Color space : YUV
Chroma subsampling : 4:2:0
Bit depth : 8 bits
Scan type : Progressive
Compression mode : Lossy
Bits/(Pixel*Frame) : 0.281
Stream size : 1.12 GiB (77%)
Writing library : XviD 1.2.1 (UTC 2008-12-04)
Audio
ID : 1
Format : AC-3
Format/Info : Audio Coding 3
Mode extension : CM (complete main)
Codec ID : 2000
Duration : 1h 44mn
Bit rate mode : Constant
Bit rate : 448 Kbps
Channel(s) : 6 channels
Channel positions : Front: L C R, Side: L R, LFE
Sampling rate : 48.0 KHz
Bit depth : 16 bits
Compression mode : Lossy
Stream size : 335 MiB (22%)
Alignment : Split accross interleaves
Interleave, duration : 40 ms (1.00 video frame)
Interleave, preload duration : 500 ms

Скриншоты

Скачать

Скачать торрент!

Как скачивать? · Что такое торрент? · Рейтинг и ограничения

Сайт не распространяет и не хранит электронные версии произведений, а лишь предоставляет доступ к создаваемому пользователями каталогу ссылок на торрент-файлы, которые содержат только списки хеш-сумм

[Профиль] [ЛС]
Показать сообщения:    
Ответить на тему

Текущее время: Сегодня 15:34

Часовой пояс: GMT + 4



Вы не можете начинать темы
Вы не можете отвечать на сообщения
Вы не можете редактировать свои сообщения
Вы не можете удалять свои сообщения
Вы не можете голосовать в опросах
Вы не можете прикреплять файлы к сообщениям
Вы не можете скачивать файлы