Перси Джексон и Море чудовищ / Percy Jackson: Sea of Monsters (Тор Фройденталь / Thor Freudenthal) [2013, США, фэнтези, приключения, семейный, HDRip] Dub

Ответить на тему
 
Автор Сообщение

user ®

Стаж: 7 лет 7 месяцев

Сообщений: 20008

Пост Пост: #1 от 27-Ноя-2013 01:55

[Цитировать]

Перси Джексон и Море чудовищPercy Jackson: Sea of Monsters«Где Боги - там и монстры»- Страна: США
Жанр: фэнтези, приключения, семейный
Год выпуска: 2013
Продолжительность: 01:46:07-Перевод: Профессиональный (полное дублирование) [Лицензия]
Субтитры: нет
Режиссер: Тор Фройденталь / Thor Freudenthal
В ролях: Логан Лерман, Александра Даддарио, Дуглас Смит, Ливэн Рамбин, Брэндон Т. Джексон, Джейк Эйбел, Энтони Хэд, Стэнли Туччи, Коннор Крэш Данн, Палома Квиатковски, Нэйтан Филлион, Алиша Ньютон-Описание: Лагерь полукровок атакует Люк Кастеллан, который раскрывает свои планы по уничтожению горы Олимп. Наставник Перси, Хирон узнает, что Люк отравил волшебное дерево, которое отвечает за барьер, защищающий Лагерь Полукровок, и которое создано из Талии Грейс, дочери Зевса, убитой циклопом. Аннабет Чейз выясняет, что Золотое Руно может восстановить дерево, и директор лагеря, Дионис, посылает Клариссу Ла Ру, дочь Ареса и соперницу Перси, найти его...-


MPAA: PG - Рекомендуется присутствие родителей-

Доп. Информация

Сценарий: Марк Гуггенхайм / Marc Guggenheim, Рик Риордан / Rick Riordan
Продюсер: Майкл Барнатан / Michael Barnathan, Крис Коламбус / Chris Columbus, Карен Розенфельт / Karen Rosenfelt, Билл Баннерман / Bill Bannerman, Марк Морган / Mark Morgan
Оператор: Шелли Джонсон / Shelly Johnson
Композитор: Эндрю Локингтон / Andrew Lockington
Бюджет: $90 000 000
Сборы в США: $68 062 807
Сборы в России: $12 654 045
Сборы в мире: $198 862 807
Мировая премьера: 7 августа 2013
Релиз на DVD: 12 декабря 2013,
«Двадцатый Век Фокс СНГ»

Релиз на Blu-ray: 12 декабря 2013,
«Двадцатый Век Фокс СНГ»
-Качество: HDRip (Исходник BDRip 1080p [WiKi])
Контейнер: AVI
Видео: XviD, 720x304 (2.35:1), 1388 kbps, 23,976 fps, 0,265 bpp
Аудио: AC3 / 5.1 / 48 kHz / 448 kbps / 16 bit-

Сравнение

Сравнение с [url=http://***/forum/viewtopic.php?t=4577570]http://***/forum/viewtopic.php?t=4577570[/url]
http://screenshotcomparison.com/comparison/50406

Знаете ли Вы, что...

  • Фильм снят по мотивам романа Рика Риордана «Перси Джексон и Море чудовищ» (The Sea of Monsters, 2006).
  • Ливэн Рамбин для своей роли Клариссы приходилось носить коричневый парик.
  • 20 июня - 22 июля съемки проходили в Новом Орлеане.
  • Александра Даддарио перекрасила волосы на светлые для роли Аннабет Чейз.
  • Планировалось, что фильм будет выпущен 15 марта 2013 года, но в мае 2012 года дата релиза была перенесена на 14 августа 2013 года.
  • Мистер Ди или Дионис (Стэнли Туччи) все же появился в этом фильме. В первом фильме («Перси Джексон и похититель молний» (2010)) его персонаж был удален.
  • Несмотря на то, что фильм был снят в формате «Супер 35», в финальных титрах указано «снято в Panavision».
  • Во время съемок сцен на яхте и шлюпке Александра Даддарио обнаружила, что у нее есть склонность к морской болезни. Интересно то, что у ее персонажа в романе эта болезнь развивается на корабле «Месть королевы Анны».
  • еще 5 фактов
  • В сценах в Вашингтоне, Округ Колумбия, на фоне видны небоскребы. По закону, принятому в 1910 году, ограничена высота зданий, самое высокое - 64 метра.
  • Когда Аннабет обнаруживает магические силы Золотого Руна на планшете, она затем подбегает к Гроверу, чтобы показать это, в этот момент можно заметить, что на его экране ничего нет.

Media Info

Общее
Полное имя : G:\Persi.Djekson.i.more.chudovish.2013.D.HDRip_1400Mb.avi
Формат : AVI
Формат/Информация : Audio Video Interleave
Размер файла : 1,37 Гбайт
Продолжительность : 1 ч. 46 м.
Общий поток : 1846 Кбит/сек
Программа кодирования : VirtualDubMod 1.5.10.2 (build 2540/release)
Библиотека кодирования : VirtualDubMod build 2540/release
Видео
Идентификатор : 0
Формат : MPEG-4 Visual
Профиль формата : Advanced Simple@L5
Параметр BVOP формата : 2
Параметр QPel формата : Нет
Параметр GMC формата : Без точки перехода
Параметр матрицы формата : Выборочная
Идентификатор кодека : XVID
Идентификатор кодека/Подсказка : XviD
Продолжительность : 1 ч. 46 м.
Битрейт : 1388 Кбит/сек
Ширина : 720 пикселей
Высота : 304 пикселя
Соотношение сторон : 2,35:1
Частота кадров : 23,976 кадра/сек
Цветовое пространство : YUV
Субдискретизация насыщенности : 4:2:0
Битовая глубина : 8 бит
Тип развёртки : Прогрессивная
Метод сжатия : С потерями
Бит/(Пиксели*Кадры) : 0.265
Размер потока : 1,03 Гбайт (75%)
Библиотека кодирования : XviD 1.2.1 (UTC 2008-12-04)
Аудио
Идентификатор : 1
Формат : AC-3
Формат/Информация : Audio Coding 3
Расширение режима : CM (complete main)
Параметр Endianness формата : Big
Идентификатор кодека : 2000
Продолжительность : 1 ч. 46 м.
Вид битрейта : Постоянный
Битрейт : 448 Кбит/сек
Каналы : 6 каналов
Расположение каналов : Front: L C R, Side: L R, LFE
Частота : 48,0 КГц
Битовая глубина : 16 бит
Метод сжатия : С потерями
Размер потока : 340 Мбайт (24%)
Выравнивание : Разделение по промежуткам
Продолжительность промежутка : 42 мс. (1,00 видеокадр)
Время предзагрузки промежутка : 500 мс.

Скриншот с названием фильма

Скриншоты

Скачать

Скачать торрент!

Как скачивать? · Что такое торрент? · Рейтинг и ограничения

Сайт не распространяет и не хранит электронные версии произведений, а лишь предоставляет доступ к создаваемому пользователями каталогу ссылок на торрент-файлы, которые содержат только списки хеш-сумм

[Профиль] [ЛС]
Показать сообщения:    
Ответить на тему

Текущее время: Сегодня 19:24

Часовой пояс: GMT + 4



Вы не можете начинать темы
Вы не можете отвечать на сообщения
Вы не можете редактировать свои сообщения
Вы не можете удалять свои сообщения
Вы не можете голосовать в опросах
Вы не можете прикреплять файлы к сообщениям
Вы не можете скачивать файлы