Тройной крест / Перекрёсток для троих / Triple Crossed (Брент Корригэн / Brent Corrigan) [2013, США, Гей-тема, эротика, триллер, детектив, DVDRip] VO

Ответить на тему
 
Автор Сообщение

user ®

Стаж: 7 лет 7 месяцев

Сообщений: 20008

Пост Пост: #1 от 26-Ноя-2013 22:45

[Цитировать]

Тройной крест / Перекрёсток для троих / Triple Crossed

Страна: США
Жанр: Гей-тема, эротика, триллер, детектив
Год выпуска: 2013
Продолжительность: 01:34:29
Перевод: Одноголосый (закадровый), перевёл Анатолий Моргуненко.
Озвучка: Василий Кошкин.
Cубтитры: нет
Режиссер: Брент Корригэн / Brent Corrigan
В ролях: Брент Корригэн, Эшли Ан, Уорд Боднер, Джэк Брокет, Мэттью Кэмпбелл, Джошуа Диннер, Эддисон Грэхэм, Тэллер Киллаби, Джуд Ленстон, Райан Масси.
Описание: После Афганистана истерзанный войной Крис Дженсен пытается вернуться к нормальной жизни в Калифорнии. Вскоре он обнаруживает, что мало кто хочет иметь дело с таким как он. Крис начинает принимать лекарства, чтобы заглушить эхо войны…
Сэмпл: http://multi-up.com/926845
Качество видео: DVDRip
Формат видео: AVI
Видео: XviD, 640x352 пиксялей, 16:9, 25 кадров в сек, 908 Kbps.
Аудио: MP3, 48.0 KHz, 128 Kbps, 2 channels.

MediaInfo

Format : AVI
Format/Info : Audio Video Interleave
File size : 707 MiB
Duration : 1h 34mn
Overall bit rate : 1 045 Kbps
Video
ID : 0
Format : MPEG-4 Visual
Format profile : Advanced Simple@L5
Format settings, BVOP : No
Format settings, QPel : No
Format settings, GMC : No warppoints
Format settings, Matrix : Default (H.263)
Codec ID : XVID
Codec ID/Hint : XviD
Duration : 1h 34mn
Bit rate : 908 Kbps
Width : 640 pixels
Height : 352 pixels
Display aspect ratio : 16:9
Frame rate : 25.000 fps
Color space : YUV
Chroma subsampling : 4:2:0
Bit depth : 8 bits
Scan type : Progressive
Compression mode : Lossy
Bits/(Pixel*Frame) : 0.161
Stream size : 613 MiB (87%)
Writing library : XviD 62
Audio
ID : 1
Format : MPEG Audio
Format version : Version 1
Format profile : Layer 3
Codec ID : 55
Codec ID/Hint : MP3
Duration : 1h 34mn
Bit rate mode : Constant
Bit rate : 128 Kbps
Channel count : 2 channels
Sampling rate : 48.0 KHz
Compression mode : Lossy
Stream size : 86.5 MiB (12%)
Alignment : Split accross interleaves
Interleave, duration : 41 ms (1.01 video frame)

Скриншоты

Скриншот с названием фильма

Скачать

Скачать торрент!

Как скачивать? · Что такое торрент? · Рейтинг и ограничения

Сайт не распространяет и не хранит электронные версии произведений, а лишь предоставляет доступ к создаваемому пользователями каталогу ссылок на торрент-файлы, которые содержат только списки хеш-сумм

[Профиль] [ЛС]
Показать сообщения:    
Ответить на тему

Текущее время: Сегодня 14:36

Часовой пояс: GMT + 4



Вы не можете начинать темы
Вы не можете отвечать на сообщения
Вы не можете редактировать свои сообщения
Вы не можете удалять свои сообщения
Вы не можете голосовать в опросах
Вы не можете прикреплять файлы к сообщениям
Вы не можете скачивать файлы