Элизиум: Рай не на Земле / Elysium (Нил Бломкамп / Neill Blomkamp) [2013, США, фантастика, боевик, триллер, HDRip] Dub

Ответить на тему
 
Автор Сообщение

user ®

Стаж: 7 лет 7 месяцев

Сообщений: 20008

Пост Пост: #1 от 26-Ноя-2013 22:45

[Цитировать]

Элизиум: Рай не на ЗемлеElysium- Страна: США
Жанр: фантастика, боевик, триллер, драма
Год выпуска: 2013
Продолжительность: 01:49:35-Перевод: Профессиональный (полное дублирование) [Лицензия Blu-Ray CEE]
Субтитры: нет
Режиссер: Нил Бломкамп / Neill Blomkamp
В ролях: Мэтт Дэймон, Джоди Фостер, Шарлто Копли, Алиси Брага, Диего Луна, Вагнер Моура, Уильям Фихтнер, Брэндон Оре, Джош Блэкер, Эмма Тремблэ, Хосе Пабло Кантилльо, Максвелл Перри Коттон-Описание: В 2154 году существует два класса людей: очень богатые, живущие на чистой, созданной руками человека, космической станции под названием Элизиум и остальные, живущие на перенаселённой разрушенной Земле. Безжалостный правительственный чиновник, амбициозная министр обороны Делакур, не остановится ни перед чем для применения анти-иммиграционных законов и сохранения роскошного образа жизни граждан Элизиума. Когда неудачника Макса загоняют в угол, он соглашается взять на себя сложную миссию, которая в случае успеха не только спасёт ему жизнь, но и может привести к равенству этих поляризованных миров.-


MPAA: R - Лицам до 17 лет обязательно присутствие взрослого-

Доп. Информация

Сценарий: Нил Бломкамп / Neill Blomkamp
Продюсер: Саймон Кинберг / Simon Kinberg, Сью Баден-Поуелл / Sue Baden-Powell, Билл Блок / Bill Block, Виктория Буркхарт / Victoria Burkhart, Стэйси Перски / Stacy Perskie
Оператор: Трент Опалок / Trent Opaloch
Композитор: Райан Амон / Ryan Amon
Бюджет: $115 000 000
Сборы в США: $93 050 117
Сборы в России: $15 803 146
Сборы в мире: $283 608 238
Мировая премьера: 7 августа 2013
Релиз на DVD: 3 декабря 2013,
«Columbia/Sony»

Релиз на Blu-ray: 3 декабря 2013,
«Columbia/Sony»
-Качество: HDRip (Исходник BDRip 1080p)
Контейнер: AVI
Видео: XviD, 720x304 (2.35:1), 1445 kbps, 23,976 fps, 0,275 bpp
Аудио: AC3 / 5.1 / 48 kHz / 448 kbps / 16 bit-

Знаете ли Вы, что...

  • Съемки начались 25 июля 2011 года.
  • Нил Бломкамп основывал идеи идеального мира, существующего отдельно от разрушенной Земли, на реальных источниках: «В 1970х годах люди всерьёз обсуждали идею при необходимости построить космические станции и покинуть Землю. Одним из лучших решений этого вопроса стал проект Стэндфордского тора. Мне понравилась идея сочетать этот хорошо известный концепт с большими деньгами, бриллиантами и особняками в стиле Bel Air. Сам концепт - поместить все эти несуразные, роскошные дома на космической станции в форме пончика - безумно меня веселил и в итоге стал той задумкой, по которой я захотел снять фильм».
  • По словам режиссера картины, первым кандидатом на главную роль фильме был рэпер Ниндзя, участник африканской группы Die Antwoord. Но после долгих переговоров рэпер отказался от этого предложения. Свое решение он объяснил тем, что его дебют в большом кино не должен состояться в фильме, ориентированном на массового зрителя. После отказа Ниндзи режиссер обратился с таким же предложением к Эминему. Последний согласился участвовать в съемках, но поставил свое обязательное условие - фильм должен обязательно сниматься в его родном городе Детройте, с чем режиссер не смог согласиться. В итоге главная роль в картине досталась актеру Мэтту Дэймону.
  • Фильм в основном снимался на двух локациях: в Мехико, который изображал Лос-Анджелес в 2154 году (в этом же году развивается действие в фильме «Аватар»), и Ванкувере, который был Элизиумом.
  • На создание костюма HULC ушло 8 месяцев исследований, и прежде чем сдать готовый дизайн, в него было внесено 75 поправок.
  • В фильме, где действие происходит в 2154 году, герои Диего Луны и Мэтта Дэймона садятся в модернизированный автомобиль Nissan GT-R, который в реальности выпускается с 2007 года.
  • Элизиум в древнегреческой мифологии означает обитель душ блаженных.
  • Над созданием костюмов работал известный итальянский дизайнер одежды и владелец собственного модного дома Джорджо Армани совместно с художником по костюмам Эйприл Ферри.
  • Перед тем как начать писать сценарий Нил Бломкамп нарисовал небольшой комикс, показывающий в общих чертах мир «Элизиума».
  • Сид Мид - дизайнер, работавший над «Бегущий по лезвию» (1982), «Трон» (1982) и «Чужие» (1986) - построил несколько декораций Элизиума и помогал художникам с иллюстрациями.
  • Примечательно, что в фильме представители низшего слоя общества, земляне, общаются между собой преимущественно на испанском. Жители же Элизиума в основном говорят на французском.
  • Макс использует автомат Калашникова и специальные патроны к дробовику с надписями на русском языке «12 калибр Э-фитиль».
  • еще 9 фактов

Сравнение

Сравнение с [url=http://***/forum/viewtopic.php?t=4586947]http://***/forum/viewtopic.php?t=4586947[/url]
http://screenshotcomparison.com/comparison/50385

Media Info

General
Complete name : G:\Elysium.Raj.ne.na.zemle.2013.D.HDRip_1.46GB.avi
Format : AVI
Format/Info : Audio Video Interleave
File size : 1.46 GiB
Duration : 1h 49mn
Overall bit rate : 1 903 Kbps
Writing application : VirtualDubMod 1.5.10.3 | www.virtualdub-fr.org || (build 2550/release)
Writing library : VirtualDubMod build 2550/release
Video
ID : 0
Format : MPEG-4 Visual
Format profile : Advanced Simple@L5
Format settings, BVOP : 1
Format settings, QPel : No
Format settings, GMC : No warppoints
Format settings, Matrix : Custom
Codec ID : XVID
Codec ID/Hint : XviD
Duration : 1h 49mn
Bit rate : 1 446 Kbps
Width : 720 pixels
Height : 304 pixels
Display aspect ratio : 2.35:1
Frame rate : 23.976 fps
Color space : YUV
Chroma subsampling : 4:2:0
Bit depth : 8 bits
Scan type : Progressive
Compression mode : Lossy
Bits/(Pixel*Frame) : 0.275
Stream size : 1.11 GiB (76%)
Writing library : XviD 1.2.1 (UTC 2008-12-04)
Audio
ID : 1
Format : AC-3
Format/Info : Audio Coding 3
Mode extension : CM (complete main)
Codec ID : 2000
Duration : 1h 49mn
Bit rate mode : Constant
Bit rate : 448 Kbps
Channel(s) : 6 channels
Channel positions : Front: L C R, Side: L R, LFE
Sampling rate : 48.0 KHz
Bit depth : 16 bits
Compression mode : Lossy
Stream size : 351 MiB (24%)
Alignment : Split accross interleaves
Interleave, duration : 42 ms (1.00 video frame)
Interleave, preload duration : 500 ms

Скриншот с названием фильма

Скриншоты

Скачать

Скачать торрент!

Как скачивать? · Что такое торрент? · Рейтинг и ограничения

Сайт не распространяет и не хранит электронные версии произведений, а лишь предоставляет доступ к создаваемому пользователями каталогу ссылок на торрент-файлы, которые содержат только списки хеш-сумм

[Профиль] [ЛС]
Показать сообщения:    
Ответить на тему

Текущее время: Сегодня 22:42

Часовой пояс: GMT + 4



Вы не можете начинать темы
Вы не можете отвечать на сообщения
Вы не можете редактировать свои сообщения
Вы не можете удалять свои сообщения
Вы не можете голосовать в опросах
Вы не можете прикреплять файлы к сообщениям
Вы не можете скачивать файлы