Рэд 2 / Red 2 (Дин Паризо / Dean Parisot) [2013, США, боевик, комедия, криминал, BDRip-AVC] Dub + Sub Eng + Original Eng

Ответить на тему
 
Автор Сообщение

user ®

Стаж: 7 лет 7 месяцев

Сообщений: 20008

Пост Пост: #1 от 26-Ноя-2013 09:45

[Цитировать]

Рэд 2 / Red 2
Страна: США
Жанр: боевик, комедия, криминал
Год выпуска: 2013
Продолжительность: 01:55:49
Перевод: Профессиональный (дублированный) (Лицензия)
Cубтитры: английские
Оригинальная аудиодорожка: английский
Режиссер: Дин Паризо / Dean Parisot
В ролях: Брюс Уиллис, Джон Малкович, Мэри-Луиз Паркер, Бён Хон Ли, Хелен Миррен, Энтони Хопкинс, Кэтрин Зета-Джонс, Дэвид Тьюлис, Нил МакДонаф, Ли Асквит-Коу
Описание: Вышедший на пенсию тайный агент ЦРУ Фрэнк Мозес объединяется с командой старых друзей, элитных оперативников, с целью найти пропавшее оружие массового уничтожения. Чтобы его заполучить, придётся прорываться сквозь армии безжалостных наёмников, террористов и всегда жаждущих власти политиков.
Миссия приводит Фрэнка и его разношёрстную команду вышедших на пенсию убийц в Париж, Лондон и Москву. В их арсенале есть только хитрость, старая сноровка и помощь друг друга, чтобы спасти мир и при этом самим остаться в живых.
Сэмпл: http://multi-up.com/926750
Качество видео: BDRip-AVC [RED 2 2013 REMUX]
Формат видео: MKV
Видео: MPEG-4 AVC, 1927 Кбит/с, 1024x424, 23.976 кадр/с
Аудио: AC3, 6 ch, 384 Кбит/с, 48.0 KHz [RUS]
Аудио 2: AC3, 6 ch, 384 Кбит/с, 48.0 KHz [ENG]

MediaInfo

Format : Matroska
Format version : Version 4 / Version 2
File size : 2.18 GiB
Duration : 1h 55mn
Overall bit rate : 2 696 Kbps
Writing application : mkvmerge v6.2.0 ('Promised Land') built on Apr 28 2013 12:22:01
Writing library : libebml v1.3.0 + libmatroska v1.4.0
Video
ID : 1
Format : AVC
Format/Info : Advanced Video Codec
Format profile : High@L4.1
Format settings, CABAC : Yes
Format settings, ReFrames : 12 frames
Codec ID : V_MPEG4/ISO/AVC
Duration : 1h 55mn
Bit rate : 1 927 Kbps
Width : 1 024 pixels
Height : 424 pixels
Display aspect ratio : 2.40:1
Frame rate : 23.976 fps
Color space : YUV
Chroma subsampling : 4:2:0
Bit depth : 8 bits
Scan type : Progressive
Bits/(Pixel*Frame) : 0.185
Stream size : 1.52 GiB (70%)
Writing library : x264 core 130 r2273 b3065e6
Encoding settings : cabac=1 / ref=12 / deblock=1:-3:-3 / analyse=0x3:0x133 / me=umh / subme=11 / psy=1 / psy_rd=1.00:0.20 / mixed_ref=1 / me_range=48 / chroma_me=1 / trellis=2 / 8x8dct=1 / cqm=0 / deadzone=21,11 / fast_pskip=0 / chroma_qp_offset=-3 / threads=6 / lookahead_threads=1 / sliced_threads=0 / nr=0 / decimate=0 / interlaced=0 / bluray_compat=0 / constrained_intra=0 / bframes=9 / b_pyramid=2 / b_adapt=2 / b_bias=0 / direct=3 / weightb=1 / open_gop=0 / weightp=2 / keyint=240 / keyint_min=23 / scenecut=40 / intra_refresh=0 / rc=2pass / mbtree=0 / bitrate=1927 / ratetol=1.0 / qcomp=0.60 / qpmin=0 / qpmax=69 / qpstep=4 / cplxblur=20.0 / qblur=0.5 / ip_ratio=1.40 / pb_ratio=1.30 / aq=1:1.00
Language : English
Audio #1
ID : 2
Format : AC-3
Format/Info : Audio Coding 3
Mode extension : CM (complete main)
Codec ID : A_AC3
Duration : 1h 55mn
Bit rate mode : Constant
Bit rate : 384 Kbps
Channel(s) : 6 channels
Channel positions : Front: L C R, Side: L R, LFE
Sampling rate : 48.0 KHz
Bit depth : 16 bits
Compression mode : Lossy
Stream size : 318 MiB (14%)
Audio #2
ID : 3
Format : AC-3
Format/Info : Audio Coding 3
Mode extension : CM (complete main)
Codec ID : A_AC3
Duration : 1h 55mn
Bit rate mode : Constant
Bit rate : 384 Kbps
Channel(s) : 6 channels
Channel positions : Front: L C R, Side: L R, LFE
Sampling rate : 48.0 KHz
Bit depth : 16 bits
Compression mode : Lossy
Stream size : 318 MiB (14%)
Language : English
Text
ID : 4
Format : UTF-8
Codec ID : S_TEXT/UTF8
Codec ID/Info : UTF-8 Plain Text
Language : English
Menu
00:00:00.000 : en:Chapter 1
00:08:16.000 : en:Chapter 2
00:14:48.000 : en:Chapter 3
00:21:16.000 : en:Chapter 4
00:28:18.000 : en:Chapter 5
00:39:38.000 : en:Chapter 6
00:47:09.000 : en:Chapter 7
00:54:18.000 : en:Chapter 8
01:00:06.000 : en:Chapter 9
01:07:32.000 : en:Chapter 10
01:11:34.000 : en:Chapter 11
01:18:38.000 : en:Chapter 12
01:23:01.000 : en:Chapter 13
01:27:46.000 : en:Chapter 14
01:35:38.000 : en:Chapter 15
01:41:29.000 : en:Chapter 16
01:45:05.000 : en:Chapter 17
01:46:45.000 : en:Chapter 18

Скриншот c названием фильма

Скриншоты

Скачать

Скачать торрент!

Как скачивать? · Что такое торрент? · Рейтинг и ограничения

Сайт не распространяет и не хранит электронные версии произведений, а лишь предоставляет доступ к создаваемому пользователями каталогу ссылок на торрент-файлы, которые содержат только списки хеш-сумм

[Профиль] [ЛС]
Показать сообщения:    
Ответить на тему

Текущее время: Сегодня 04:48

Часовой пояс: GMT + 4



Вы не можете начинать темы
Вы не можете отвечать на сообщения
Вы не можете редактировать свои сообщения
Вы не можете удалять свои сообщения
Вы не можете голосовать в опросах
Вы не можете прикреплять файлы к сообщениям
Вы не можете скачивать файлы