Перси Джексон и Море чудовищ / Percy Jackson: Sea of Monsters (Тор Фройденталь / Thor Freudenthal ) [2013, США, фэнтези, приключения, семейный, BDRip-AVC] Dub + Original Eng, Sub (Eng)

Ответить на тему
 
Автор Сообщение

user ®

Стаж: 7 лет 7 месяцев

Сообщений: 20008

Пост Пост: #1 от 26-Ноя-2013 09:45

[Цитировать]

Перси Джексон и Море чудовищPercy Jackson: Sea of Monsters«Где Боги - там и монстры»- Страна: США
Жанр: фэнтези, приключения, семейный.
Год выпуска: 2013
Продолжительность: 01:46:07-Перевод: Профессиональный (полное дублирование)
Оригинальная аудиодорожка: английский.
Субтитры: английские.
Режиссер: Тор Фройденталь / Thor Freudenthal
В ролях:
Логан Лерман (Percy Jackson), Александра Даддарио (Annabeth), Дуглас Смит (Tyson), Ливэн Рамбин (Clarisse), Брэндон Т. Джексон (Grover), Джейк Эйбел (Luke), Энтони Хэд (Chiron), Стэнли Туччи (Mr. D), Коннор Крэш Данн (Tereus), Палома Квиатковски (Thalia), Нэйтан Филлион (Hermes), Алиша Ньютон (Young Annabeth)
Дублёры: Глеб Гаврилов (Percy Jackson), Игорь Сергеев (Tyson), Станислав Концевич (Chiron), Валерий Смекалов (Ganymede)-Описание: Лагерь полукровок атакует Люк Кастеллан, который раскрывает свои планы по уничтожению горы Олимп. Наставник Перси, Хирон узнает, что Люк отравил волшебное дерево, которое отвечает за барьер, защищающий Лагерь Полукровок, и которое создано из Талии Грейс, дочери Зевса, убитой циклопом. Аннабет Чейз выясняет, что Золотое Руно может восстановить дерево, и директор лагеря, Дионис, посылает Клариссу Ла Ру, дочь Ареса и соперницу Перси, найти его...--
MPAA: PG - Рекомендуется присутствие родителей-Качество: BDRip-AVC (Percy Jackson Sea Of Monsters 2013 1080p BluRay AVC DTS HD MA 7 1)
Контейнер: MKV
Видео: AVC, 1120x476 (2.35:1), 3033 kbps, 23,976 fps, 0,237 bpp
Аудио №1: русский / AC3 / 5.1 / 48 kHz / 384 kbps / Дублированный
Аудио №2: английский / AC3 / 5.1 / 48 kHz / 448 kbps / Eng
Субтитры: английские.
Навигация по главам: есть-

Media Info

X264

x264 [info]: frame I:1040 Avg QP:15.21 size: 85888 PSNR Mean Y:48.11 U:50.86 V:51.32 Avg:48.88 Global:48.47
x264 [info]: frame P:35404 Avg QP:17.90 size: 31437 PSNR Mean Y:46.25 U:49.30 V:49.59 Avg:47.04 Global:46.48
x264 [info]: frame B:116218 Avg QP:19.91 size: 10384 PSNR Mean Y:45.39 U:48.48 V:48.97 Avg:46.20 Global:45.66
x264 [info]: consecutive B-frames: 2.5% 3.1% 11.4% 23.0% 17.5% 34.9% 4.0% 1.4% 0.7% 0.5% 0.3% 0.3% 0.2% 0.2%
x264 [info]: mb I I16..4: 12.6% 67.4% 20.0%
x264 [info]: mb P I16..4: 1.4% 13.5% 1.6% P16..4: 35.9% 28.2% 14.6% 0.0% 0.0% skip: 4.8%
x264 [info]: mb B I16..4: 0.0% 1.0% 0.2% B16..8: 41.8% 13.2% 3.9% direct: 6.9% skip:33.2% L0:42.1% L1:43.5% BI:14.4%
x264 [info]: 8x8 transform intra:80.1% inter:62.0%
x264 [info]: direct mvs spatial:98.0% temporal:2.0%
x264 [info]: coded y,uvDC,uvAC intra: 90.7% 86.4% 72.0% inter: 30.0% 28.9% 15.0%
x264 [info]: i16 v,h,dc,p: 28% 9% 12% 51%
x264 [info]: i8 v,h,dc,ddl,ddr,vr,hd,vl,hu: 8% 10% 6% 9% 14% 13% 14% 11% 14%
x264 [info]: i4 v,h,dc,ddl,ddr,vr,hd,vl,hu: 8% 8% 3% 10% 16% 14% 15% 11% 14%
x264 [info]: i8c dc,h,v,p: 48% 21% 15% 16%
x264 [info]: Weighted P-Frames: Y:5.8% UV:2.5%
x264 [info]: ref P L0: 45.7% 12.4% 17.0% 6.5% 5.3% 3.5% 3.8% 2.1% 1.8% 1.5% 0.4% 0.0%
x264 [info]: ref B L0: 74.3% 11.3% 5.0% 3.2% 1.9% 1.5% 1.8% 0.8% 0.2%
x264 [info]: ref B L1: 93.3% 6.7%
x264 [info]: SSIM Mean Y:0.9810856 (17.232db)
x264 [info]: PSNR Mean Y:45.608 U:48.687 V:49.130 Avg:46.410 Global:45.850 kb/s:3026.95
x264 [total]: encoded 152662 frames, 7.55 fps, 3026.95 kb/s
General
Unique ID : 208175374772491557239243585913759352081 (0x9C9D1E69676DABA9AED2DDD6A9664511)
Complete name : D:\Percy.Jackson.Sea.Of.Monsters.2013.BDrip-AVC.Froloff777.mkv
Format : Matroska
Format version : Version 4 / Version 2
File size : 2.86 GiB
Duration : 1h 46mn
Overall bit rate : 3 861 Kbps
Encoded date : UTC 2013-11-26 01:31:40
Writing application : mkvmerge v6.1.0 ('Old Devil') built on Mar 4 2013 09:10:42
Writing library : libebml v1.3.0 + libmatroska v1.4.0
Attachment : Yes
Video
ID : 1
Format : AVC
Format/Info : Advanced Video Codec
Format profile : High@L4.1
Format settings, CABAC : Yes
Format settings, ReFrames : 10 frames
Codec ID : V_MPEG4/ISO/AVC
Duration : 1h 46mn
Bit rate : 3 033 Kbps
Width : 1 120 pixels
Height : 476 pixels
Display aspect ratio : 2.35:1
Frame rate : 23.976 fps
Color space : YUV
Chroma subsampling : 4:2:0
Bit depth : 8 bits
Scan type : Progressive
Bits/(Pixel*Frame) : 0.237
Stream size : 2.19 GiB (76%)
Title : Percy Jackson: Sea of Monsters
Writing library : x264 core 130 r2273 b3065e6
Encoding settings : cabac=1 / ref=10 / deblock=1:-3:-2 / analyse=0x3:0x113 / me=umh / subme=10 / psy=1 / psy_rd=1.00:0.10 / mixed_ref=1 / me_range=32 / chroma_me=1 / trellis=2 / 8x8dct=1 / cqm=0 / deadzone=21,11 / fast_pskip=0 / chroma_qp_offset=-3 / threads=6 / lookahead_threads=1 / sliced_threads=0 / nr=0 / decimate=0 / interlaced=0 / bluray_compat=0 / constrained_intra=0 / bframes=13 / b_pyramid=2 / b_adapt=2 / b_bias=0 / direct=3 / weightb=1 / open_gop=0 / weightp=2 / keyint=250 / keyint_min=24 / scenecut=40 / intra_refresh=0 / rc_lookahead=60 / rc=2pass / mbtree=0 / bitrate=3033 / ratetol=1.0 / qcomp=0.65 / qpmin=0 / qpmax=69 / qpstep=4 / cplxblur=20.0 / qblur=0.5 / vbv_maxrate=50000 / vbv_bufsize=62500 / nal_hrd=none / ip_ratio=1.30 / pb_ratio=1.30 / aq=2:0.80
Language : English
Default : Yes
Forced : No
Audio #1
ID : 2
Format : AC-3
Format/Info : Audio Coding 3
Mode extension : CM (complete main)
Codec ID : A_AC3
Duration : 1h 46mn
Bit rate mode : Constant
Bit rate : 384 Kbps
Channel(s) : 6 channels
Channel positions : Front: L C R, Side: L R, LFE
Sampling rate : 48.0 KHz
Bit depth : 16 bits
Compression mode : Lossy
Stream size : 291 MiB (10%)
Title : Дублированное
Language : Russian
Default : Yes
Forced : No
Audio #2
ID : 3
Format : AC-3
Format/Info : Audio Coding 3
Mode extension : CM (complete main)
Codec ID : A_AC3
Duration : 1h 46mn
Bit rate mode : Constant
Bit rate : 448 Kbps
Channel(s) : 5 channels
Channel positions : Front: L C R, Side: L R
Sampling rate : 48.0 KHz
Bit depth : 16 bits
Compression mode : Lossy
Stream size : 340 MiB (12%)
Language : English
Default : No
Forced : No
Text
ID : 4
Format : UTF-8
Codec ID : S_TEXT/UTF8
Codec ID/Info : UTF-8 Plain Text
Language : English
Default : No
Forced : No
Menu
00:00:00.000 : en:Chapter 1
00:04:05.453 : en:Chapter 2
00:06:43.069 : en:Chapter 3
00:09:31.696 : en:Chapter 4
00:13:53.123 : en:Chapter 5
00:19:17.156 : en:Chapter 6
00:20:48.038 : en:Chapter 7
00:22:10.495 : en:Chapter 8
00:25:30.529 : en:Chapter 9
00:28:22.826 : en:Chapter 10
00:30:27.534 : en:Chapter 11
00:33:19.998 : en:Chapter 12
00:37:01.260 : en:Chapter 13
00:39:49.595 : en:Chapter 14
00:45:16.380 : en:Chapter 15
00:48:50.177 : en:Chapter 16
00:52:42.951 : en:Chapter 17
00:56:35.100 : en:Chapter 18
01:00:19.866 : en:Chapter 19
01:03:35.895 : en:Chapter 20
01:05:40.686 : en:Chapter 21
01:10:41.695 : en:Chapter 22
01:12:32.181 : en:Chapter 23
01:16:52.816 : en:Chapter 24
01:19:39.441 : en:Chapter 25
01:23:01.768 : en:Chapter 26
01:25:45.807 : en:Chapter 27
01:29:54.263 : en:Chapter 28
01:32:47.311 : en:Chapter 29
01:34:25.242 : en:Chapter 30
01:36:07.970 : en:Chapter 31
01:37:39.186 : en:Chapter 32
01:46:07.110 : en:

Сравнение с исходником

.........................Source........................................................................BDrip-AVC...........................


Скриншоты

Скачать

Скачать торрент!

Как скачивать? · Что такое торрент? · Рейтинг и ограничения

Сайт не распространяет и не хранит электронные версии произведений, а лишь предоставляет доступ к создаваемому пользователями каталогу ссылок на торрент-файлы, которые содержат только списки хеш-сумм

[Профиль] [ЛС]
Показать сообщения:    
Ответить на тему

Текущее время: Сегодня 22:22

Часовой пояс: GMT + 4



Вы не можете начинать темы
Вы не можете отвечать на сообщения
Вы не можете редактировать свои сообщения
Вы не можете удалять свои сообщения
Вы не можете голосовать в опросах
Вы не можете прикреплять файлы к сообщениям
Вы не можете скачивать файлы