Чаепитие с принцессами / Lalaloopsy Lala-Oopsies: A Sew Magical Tale (Николас Атлан / Nicolas Atlan, Майк Йонг / Mike Young) [2013, Мультфильм, детский, семейный, SATRip] Dub

Ответить на тему
 
Автор Сообщение

user ®

Стаж: 12 лет

Сообщений: 15145

Пост Пост: #1 от 26-Ноя-2013 01:00

[Цитировать]

Чаепитие с принцессами / Lalaloopsy Lala-Oopsies: A Sew Magical Tale
Страна: США, Moonscoop Entertainment
Жанр: Мультфильм, детский, семейный
Продолжительность: 00:43:33
Год выпуска: 2013
Перевод: Профессиональный (дублированный)
Русские субтитры: нет
Режиссёр: Николас Атлан / Nicolas Atlan, Майк Йонг / Mike Young
Описание: Знакомьтесь, принцессы Лала-Упси — в ярком мультфильме от создателей мультсериала «Добрые чудеса в стране Лалалупсия». За зелеными холмами страны Лалалупсия, за волшебной дверью есть ход в потайной мир, о существовании которого вы даже не догадывались. Мир этот состоит из островков, окруженных рекой из клубничного молока. А живут здесь симпатичные принцессы Лала-Упси, летающие феи и красивые русалки. Одна из принцесс Лала-Упси организует особенное чаепитие. В ходе подготовки она случайно роняет в молочную реку кубики сахара, что приводит к непредвиденным последствиям — река перестает течь. Принцессы, феи и русалки сказочной страны должны объединиться, чтобы спасти свои домики.
Семпл: http://multi-up.com/926811
Качество: SATRip
Формат: AVI
Видео: Xvid, 720x400, 25fps,
Аудио: AC3, 48000Hz, stereo, 192kbps, 1 850 Kbps
Субтитры: Отсутствуют

Подробные технические данные

O:\FILMS\Чаепитие с принцессами.2013.XviD.SATRip.avi General Complete name : O:\FILMS\Чаепитие с принцессами.2013.XviD.SATRip.avi Format : AVI Format/Info : Audio Video Interleave File size : 639 MiB Duration : 43mn 33s Overall bit rate : 2 052 Kbps Movie name : Lalaloopsy Lala-Oopsies: A Sew Magical Tale Director : SATRip by Thunder Writing application : VirtualDubMod 1.5.10.3 | www.virtualdub-fr.org || (build 2550/release) Original source form/Name : Cartoon Video #0 ID : 0 Format : MPEG-4 Visual Format profile : Advanced Simple@L5 Format settings, BVOP : Yes Format settings, QPel : No Format settings, GMC : No warppoints Format settings, Matrix : Default (H.263) Codec ID : XVID Codec ID/Hint : XviD Duration : 43mn 33s Bit rate : 1 850 Kbps Width : 720 pixels Height : 400 pixels Display aspect ratio : 16:9 Frame rate : 25.000 fps Color space : YUV Chroma subsampling : 4:2:0 Bit depth : 8 bits Scan type : Progressive Bits/(Pixel*Frame) : 0.257 Stream size : 576 MiB (90%) Writing library : XviD 1.2.1 (UTC 2008-12-04) Audio #1 ID : 1 Format : AC-3 Format/Info : Audio Coding 3 Mode extension : CM (complete main) Codec ID : 2000 Duration : 43mn 33s Bit rate mode : Constant Bit rate : 192 Kbps Channel(s) : 2 channels Channel positions : Front: L R Sampling rate : 48.0 KHz Bit depth : 16 bits Stream size : 59.8 MiB (9%) Alignment : Split accross interleaves Interleave, duration : 40 ms (1.00 video frame) Interleave, preload duration : 500 ms

Скриншоты


Скачать

Скачать торрент! Чаепитие с принцессами / Lalaloopsy Lala-Oopsies: A Sew Magical Tale (Николас Атлан / Nicolas Atlan, Майк Йонг / Mike Young) [2013, Мультфильм, детский, семейный, SATRip] Dub

Как скачивать? · Что такое торрент? · Рейтинг и ограничения

Сайт не распространяет и не хранит электронные версии произведений, а лишь предоставляет доступ к создаваемому пользователями каталогу ссылок на торрент-файлы, которые содержат только списки хеш-сумм

[Профиль] [ЛС]
Показать сообщения:    
Ответить на тему

Текущее время: Сегодня 20:06

Часовой пояс: GMT + 4



Вы не можете начинать темы
Вы не можете отвечать на сообщения
Вы не можете редактировать свои сообщения
Вы не можете удалять свои сообщения
Вы не можете голосовать в опросах
Вы не можете прикреплять файлы к сообщениям
Вы не можете скачивать файлы