Идеальная пара / Perfect Romance (Дуглас Барр / Douglas Barr) [2004, США, Канада, мелодрама, комедия, HDTV 1080i] MVO

Ответить на тему
 
Автор Сообщение

user ®

Стаж: 7 лет 7 месяцев

Сообщений: 20008

Пост Пост: #1 от 25-Ноя-2013 21:50

[Цитировать]

Идеальная пара / Perfect Romance
Страна: США, Канада
Жанр: мелодрама, комедия
Год выпуска: 2004
Продолжительность: 01:29:15
Перевод: Профессиональный (многоголосый закадровый)
Cубтитры: нет
Оригинальная аудиодорожка: нет
Режиссер: Дуглас Барр / Douglas Barr
В ролях: Кэтлин Куинлен, Лори Хёринг, Генри Йен Кусик, Майкл Тракко, ДжейАр Борн, Нико МакЭун, Ванда Кэннон, Она Грауэр, Адам Харингтон, Агам Дарши
Описание: Умному и обаятельному преподавателю литературы катастрофически не везет в любви. Образ своей второй половины он видит только в произведениях английских романтиков, но в реальной жизни ему так и не удалось встретить свой идеал. И совсем неожиданно герой находит свою возлюбленную в Интернете. Окрыленный мечтатель спешит на встречу с прекрасной дамой и не подозревает, что все изящные послания были написаны не самой девушкой, а ее матерью…
Сэмпл: http://www.sendspace.com/file/b6b81y
Тип релиза: HDTV 1080i
Контейнер: TS
Видео: AVC, 1920x1080 (16/9), 25.000 fps, 10.7 Mbps (0.207 bit/pixel)
Аудио: MP2, 48.0 KHz, 2 ch, 192 Kbps, CBR (Russian)

MediaInfo

Общее
Идентификатор : 3 (0x3)
Полное имя : H:\БОЛЬШОЕ видео\ТВ записи\Идеальная пара.TS
Формат : MPEG-TS
Размер файла : 7,33 Гбайт
Продолжительность : 1 ч. 29 м.
Режим общего битрейта : Переменный
Общий поток : 11,8 Мбит/сек
Видео
Идентификатор : 2141 (0x85D)
Идентификатор меню : 21004 (0x520C)
Формат : AVC
Формат/Информация : Advanced Video Codec
Профиль формата : Main@L4.0
Параметр CABAC формата : Да
Параметр ReFrames формата : 3 кадра
Идентификатор кодека : 27
Продолжительность : 1 ч. 29 м.
Битрейт : 11,0 Мбит/сек
Ширина : 1920 пикселей
Высота : 1080 пикселей
Соотношение сторон : 16:9
Частота кадров : 25,000 кадров/сек
Стандарт вещания : Component
Цветовое пространство : YUV
Субдискретизация насыщенности : 4:2:0
Битовая глубина : 8 бит
Тип развёртки : Чересстрочная
Порядок развёртки : Верхнее поле первое
Бит/(Пиксели*Кадры) : 0.212
Размер потока : 6,84 Гбайт (93%)
Основные цвета : BT.709
Характеристики трансфера : BT.709
Коэффициенты матрицы : BT.709
Аудио
Идентификатор : 2142 (0x85E)
Идентификатор меню : 21004 (0x520C)
Формат : MPEG Audio
Версия формата : Version 1
Профиль формата : Layer 2
Идентификатор кодека : 4
Продолжительность : 1 ч. 29 м.
Вид битрейта : Постоянный
Битрейт : 192 Кбит/сек
Каналы : 2 канала
Частота : 48,0 КГц
Метод сжатия : С потерями
Задержка видео : -17 мс.
Размер потока : 123 Мбайт (2%)
Язык : Russian

Скриншоты


Скачать

Скачать торрент!

Как скачивать? · Что такое торрент? · Рейтинг и ограничения

Сайт не распространяет и не хранит электронные версии произведений, а лишь предоставляет доступ к создаваемому пользователями каталогу ссылок на торрент-файлы, которые содержат только списки хеш-сумм

[Профиль] [ЛС]
Показать сообщения:    
Ответить на тему

Текущее время: Сегодня 20:39

Часовой пояс: GMT + 4



Вы не можете начинать темы
Вы не можете отвечать на сообщения
Вы не можете редактировать свои сообщения
Вы не можете удалять свои сообщения
Вы не можете голосовать в опросах
Вы не можете прикреплять файлы к сообщениям
Вы не можете скачивать файлы