Уиллард / Willard (Глен Морган / Glen Morgan) [2003, Канада, США, ужасы, фантастика, триллер, драма, WEB-DL 720p] DVO + MVO + DVO + Sub Rus, Eng + Original Eng

Ответить на тему
 
Автор Сообщение

user ®

Стаж: 7 лет 7 месяцев

Сообщений: 20008

Пост Пост: #1 от 25-Ноя-2013 21:50

[Цитировать]

Уиллард / Willard Страна: Канада, США
Студия: New Line Cinema, Hard Eight Pictures
Жанр: ужасы, фантастика, триллер, драма
Год выпуска: 2003
Продолжительность: 01:40:23
Перевод 1: Профессиональный (двухголосый закадровый) [DVD R5, 2007 - "Universal Pictures Rus"]
Перевод 2: Профессиональный (многоголосый закадровый) [по заказу ТК "Россия", 2006]
Перевод 3: Профессиональный (двухголосый закадровый) [Роберти и Александр Власов]
Cубтитры: русские, английские (SDH)
Оригинальная аудиодорожка: английский
Режиссер: Глен Морган / Glen Morgan
В ролях: Криспин Гловер, Р. Ли Эрми, Лаура Хэрринг, Джеки Барроуз, Эшлин Гир, Уильям С. Тейлор, Эдвард Хорн, Гас Линч, Лаара Сэдик, Дэвид Паркер, Тай Олссон, Кристен Клоук
Описание: Застенчивый и необщительный молодой человек по имени Уиллард постоянно живёт под давлением — ему всё время приходится ухаживать за своей больной матерью, вечно находящейся в бреду, его начальник мистер Мартин терроризирует и унижает морально на работе, которая Уилларду совершенно не приносит никакого удовольствия. И ещё у него абсолютно нет друзей и личной жизни. Но однажды, когда Уиллард в очередной раз ловил крыс в подвале своего большого старого дома, он поймал маленького крысёнка, который впоследствии стал единственным другом Уилларду. После ещё одного трудного дня на работе, сидя в подвале в компании крыс, Уиллард открывает для себя, что имеет способность не только понимать и говорить с крысами, но и заставлять их делать то, что скажет.-Доп. информация: -Тип релиза: WEB-DL 720p
Контейнер: MKV
Видео: MPEG-4 AVC Video, 1280x542 / 2,35:1 (16:9) / ~ 4170 kbps / 23,976 fps / Main@L3.1
Аудио 1: Russian: AC3, 6 ch, 448 kbps, 48 kHz | двухголосый [DVD R5]
Аудио 2: Russian: AC3, 2.0 ch, 192 kbps, 48 kHz | многоголосый [ТК "Россия", 2006]
Аудио 3: Russian: AC3, 2.0 ch, 192 kbps, 48 kHz | двухголосый [Роберти и Александр Власов]
Аудио 4: English: AC3, 6 ch, 384 kbps, 48 kHz
Формат субтитров: softsub (SRT)
Главы: подписаны

MediaInfo

Общее
Уникальный идентификатор : 245679545051308066706212557022690141195 (0xB8D428C4DAFA2A6391281B839AFDE40B)
Полное имя : M:\Уиллард 2003.WEB-DL.720p.ПД.ПМ.ПД.Eng.mkv
Формат : Matroska
Версия формата : Version 4 / Version 2
Размер файла : 3,85 Гбайт
Продолжительность : 1 ч. 40 м.
Общий поток : 5497 Кбит/сек
Название фильма : Willard (2003)
Дата кодирования : UTC 2013-11-24 12:21:25
Программа кодирования : mkvmerge v6.5.0 ('Isn't she lovely') built on Oct 20 2013 12:50:05
Библиотека кодирования : libebml v1.3.0 + libmatroska v1.4.1
Видео
Идентификатор : 1
Формат : AVC
Формат/Информация : Advanced Video Codec
Профиль формата : Main@L3.1
Параметр CABAC формата : Нет
Параметр ReFrames формата : 2 кадра
Идентификатор кодека : V_MPEG4/ISO/AVC
Продолжительность : 1 ч. 40 м.
Битрейт : 4171 Кбит/сек
Ширина : 1280 пикселей
Высота : 542 пикселя
Соотношение сторон : 2,35:1
Режим частоты кадров : Постоянный
Частота кадров : 23,976 кадра/сек
Цветовое пространство : YUV
Субдискретизация насыщенности : 4:2:0
Битовая глубина : 8 бит
Тип развёртки : Прогрессивная
Бит/(Пиксели*Кадры) : 0.251
Размер потока : 2,93 Гбайт (76%)
Язык : English
Default : Да
Forced : Нет
Основные цвета : BT.709
Характеристики трансфера : BT.709
Коэффициенты матрицы : BT.709
Аудио #1
Идентификатор : 2
Формат : AC-3
Формат/Информация : Audio Coding 3
Расширение режима : CM (complete main)
Параметр Endianness формата : Big
Идентификатор кодека : A_AC3
Продолжительность : 1 ч. 40 м.
Вид битрейта : Постоянный
Битрейт : 448 Кбит/сек
Каналы : 6 каналов
Расположение каналов : Front: L C R, Side: L R, LFE
Частота : 48,0 КГц
Битовая глубина : 16 бит
Метод сжатия : С потерями
Размер потока : 322 Мбайт (8%)
Заголовок : AC3 6ch 448kbps - двухголосый (DVD5 R5, 2007 - "Universal Pictures Rus")
Язык : Russian
Default : Да
Forced : Нет
Аудио #2
Идентификатор : 3
Формат : AC-3
Формат/Информация : Audio Coding 3
Расширение режима : CM (complete main)
Параметр Endianness формата : Big
Идентификатор кодека : A_AC3
Продолжительность : 1 ч. 40 м.
Вид битрейта : Постоянный
Битрейт : 192 Кбит/сек
Каналы : 2 канала
Расположение каналов : Front: L R
Частота : 48,0 КГц
Битовая глубина : 16 бит
Метод сжатия : С потерями
Размер потока : 138 Мбайт (3%)
Заголовок : AC3 2.0ch 192kbps - многоголосый (по заказу ТК "Россия", 2006)
Язык : Russian
Default : Нет
Forced : Нет
Аудио #3
Идентификатор : 4
Формат : AC-3
Формат/Информация : Audio Coding 3
Расширение режима : CM (complete main)
Параметр Endianness формата : Big
Идентификатор кодека : A_AC3
Продолжительность : 1 ч. 40 м.
Вид битрейта : Постоянный
Битрейт : 192 Кбит/сек
Каналы : 2 канала
Расположение каналов : Front: L R
Частота : 48,0 КГц
Битовая глубина : 16 бит
Метод сжатия : С потерями
Размер потока : 138 Мбайт (3%)
Заголовок : AC3 2.0ch 192kbps - двухголосый (Роберти и Александр Власов)
Язык : Russian
Default : Нет
Forced : Нет
Аудио #4
Идентификатор : 5
Формат : AC-3
Формат/Информация : Audio Coding 3
Расширение режима : CM (complete main)
Параметр Endianness формата : Big
Идентификатор кодека : A_AC3
Продолжительность : 1 ч. 40 м.
Вид битрейта : Постоянный
Битрейт : 384 Кбит/сек
Каналы : 6 каналов
Расположение каналов : Front: L C R, Side: L R, LFE
Частота : 48,0 КГц
Битовая глубина : 16 бит
Метод сжатия : С потерями
Размер потока : 276 Мбайт (7%)
Заголовок : AC3 6ch 384kbps - original
Язык : English
Default : Нет
Forced : Нет
Текст #1
Идентификатор : 6
Формат : UTF-8
Идентификатор кодека : S_TEXT/UTF8
Идентификатор кодека/Информация : UTF-8 Plain Text
Язык : Russian
Default : Нет
Forced : Нет
Текст #2
Идентификатор : 7
Формат : UTF-8
Идентификатор кодека : S_TEXT/UTF8
Идентификатор кодека/Информация : UTF-8 Plain Text
Заголовок : SDH
Язык : English
Default : Нет
Forced : Нет
Меню
00:00:00.000 : en:Main Titles
00:03:12.000 : en:Rats In The Basement
00:06:23.000 : en:Awful Mother, Awful Name
00:11:01.000 : en:"He Wants To See You"
00:16:00.000 : en:Stuck Like Glue
00:18:59.000 : en:A Friend In Socrates
00:21:21.000 : en:A Successful Man's Car
00:24:01.000 : en:"Tear It!"
00:27:22.000 : en:Like A Man...on A Mission
00:35:24.000 : en:Mr. Martin's Loss Of Control
00:37:53.000 : en:All Good Things...
00:41:14.000 : en:Ben, The Defiant Leader
00:46:05.000 : en:Death And Bankruptcy
00:51:15.000 : en:Cat, Food
00:55:31.000 : en:Father's Things
01:00:11.000 : en:Ben Won't Learn
01:03:32.000 : en:Position Terminated
01:09:13.000 : en:Nasty, White, Dead Rat
01:11:59.000 : en:An Army Of Thousands
01:15:38.000 : en:"We've Come To See You"
01:19:26.000 : en:Cleaning House
01:22:39.000 : en:"It's All Over, Ben"
01:30:28.000 : en:Friends No More
01:33:28.000 : en:Waiting...quiet As A Mouse
01:35:39.000 : en:End Credits

-

Скриншот с названием фильма


-

О съёмках фильма

В картине звучит песня «Бен» в исполнении Майкла Джексона, написанная им специально к одноименному продолжению оригинала.
На всех фотографиях в доме отца Уилларда запечатлен актер Брюс Дэвисон, снимавшийся в оригинале 1971 года.
Первоначально на главную роль планировался Даг Хатчисон, под него и писался сценарий.
От главной роли последовательно отказались Хоакин Феникс и Макколей Калкин.
Роль Бена исполнила реальная огромная крыса родом из Гамбии. Этот вид крыс может достигать размеров тела, не считая хвоста 43 сантиметра, а весить 2,7 килограмма.
Скачать

Скачать торрент!

Как скачивать? · Что такое торрент? · Рейтинг и ограничения

Сайт не распространяет и не хранит электронные версии произведений, а лишь предоставляет доступ к создаваемому пользователями каталогу ссылок на торрент-файлы, которые содержат только списки хеш-сумм

[Профиль] [ЛС]
Показать сообщения:    
Ответить на тему

Текущее время: Сегодня 06:29

Часовой пояс: GMT + 4



Вы не можете начинать темы
Вы не можете отвечать на сообщения
Вы не можете редактировать свои сообщения
Вы не можете удалять свои сообщения
Вы не можете голосовать в опросах
Вы не можете прикреплять файлы к сообщениям
Вы не можете скачивать файлы