Возврат / Сдача / Вернуть наличкой / Cashback (Шон Эллис / Sean Ellis) [2006, Великобритания, мелодрама, комедия, эротика, BDRip 1080p] DVO (Инис) + AVO (Алексеев) + DVO (Интерфильм) + Sub (Rus, Eng) + Original (Eng)

Ответить на тему
 
Автор Сообщение

user ®

Стаж: 7 лет 7 месяцев

Сообщений: 20008

Пост Пост: #1 от 25-Ноя-2013 21:50

[Цитировать]

Возврат / Сдача / Вернуть наличкой / Cashback Страна: Великобритания
Студия: Left Turn Films, Lipsync Productions, Ugly Duckling Films
Жанр: мелодрама, комедия, эротика
Год выпуска: 2006
Продолжительность: 01:42:03
Перевод 1: Профессиональный (двухголосый закадровый) Студия Инис
Перевод 2: Авторский (одноголосый закадровый) Антон Алексеев
Перевод 3: Любительский (двухголосый закадровый) Интерфильм
Cубтитры: русские, английские (+SDH)
Оригинальная аудиодорожка: английский
Режиссер: Шон Эллис / Sean Ellis
В ролях: Шон Биггерстаф, Эмилия Фокс, Стюарт Гудвин, Майкл Лэмбурн, Майкл Диксон, Мишель Райан, Эрика Эллис, Джей Бауэн, Шон Эванс, Кеннет Фахи
Описание: Переживая болезненное расставание с любимой, Бен впадает в бессонницу. В освободившиеся 8 часов он начинает работать в ночную смену местного супермаркета, где главной задачей обслуживающего персонала является «времяубийство». Неожиданно Бен обнаруживает в себе необычную способность останавливать время, что даёт толчок его художественному таланту.
Сэмпл: Скачать
Тип релиза: BDRip 1080p (CRiSC)
Контейнер: MKV
Видео: MPEG-4 AVC / 1920x818 / 16003 kbps / 23.976 fps / 16:9 / High Profile 4.1
Аудио 1: Русский, AC3 / 5.1 / 48 kHz / 448 kbps (DVO INIS)
Аудио 2: Русский, AC3 / 5.1 / 48 kHz / 448 kbps / DN -4dB (А. Алексеев)
Аудио 3: Русский, AC3 / 2.0 / 48 kHz / 192 kbps / DN -4dB (DVO Interfilm)
Аудио 4: Английский, DTS / 5.1 / 48 kHz / 1536 kbps (Original)
Формат субтитров: подключаемые (SRT)
Навигация по главам: есть

MediaInfo

General
Unique ID : 193498971721038236533688668146345702233 (0x91928BDFDBED636090EB3D5093C3F359)
Complete name : D:\Cashback.2006.1080p.BluRay.3xRus.Eng.x264-CRiSC.mkv
Format : Matroska
Format version : Version 2
File size : 13.3 GiB
Duration : 1h 42mn
Overall bit rate : 18.6 Mbps
Encoded date : UTC 2013-11-24 22:08:03
Writing application : mkvmerge v5.8.0 ('No Sleep / Pillow') built on Sep 2 2012 15:37:04
Writing library : libebml v1.2.3 + libmatroska v1.3.0
Video
ID : 1
Format : AVC
Format/Info : Advanced Video Codec
Format profile : High@L4.1
Format settings, CABAC : Yes
Format settings, ReFrames : 5 frames
Codec ID : V_MPEG4/ISO/AVC
Duration : 1h 42mn
Bit rate : 15.6 Mbps
Width : 1 920 pixels
Height : 818 pixels
Display aspect ratio : 2.35:1
Frame rate mode : Constant
Frame rate : 23.976 fps
Color space : YUV
Chroma subsampling : 4:2:0
Bit depth : 8 bits
Scan type : Progressive
Bits/(Pixel*Frame) : 0.415
Stream size : 11.1 GiB (84%)
Title : Cashback (2006)
Writing library : x264 core 140 r2377kMod 1ca7bb9
Encoding settings : cabac=1 / ref=5 / deblock=1:-3:-3 / analyse=0x3:0x133 / me=umh / subme=11 / psy=1 / fade_compensate=0.00 / psy_rd=1.10:0.00 / mixed_ref=1 / me_range=64 / chroma_me=1 / trellis=2 / 8x8dct=1 / cqm=0 / deadzone=21,11 / fast_pskip=0 / chroma_qp_offset=-2 / threads=12 / lookahead_threads=2 / sliced_threads=0 / nr=0 / decimate=0 / interlaced=0 / bluray_compat=0 / constrained_intra=0 / fgo=0 / bframes=7 / b_pyramid=2 / b_adapt=2 / b_bias=0 / direct=3 / weightb=1 / open_gop=0 / weightp=2 / keyint=250 / keyint_min=23 / scenecut=40 / intra_refresh=0 / rc_lookahead=40 / rc=crf / mbtree=0 / crf=17.0000 / qcomp=0.60 / qpmin=0 / qpmax=69 / qpstep=4 / vbv_maxrate=50000 / vbv_bufsize=62500 / crf_max=0.0 / nal_hrd=none / filler=0 / ip_ratio=1.40 / pb_ratio=1.30 / aq=2:0.70
Language : English
Default : Yes
Forced : No
Color primaries : BT.709
Transfer characteristics : BT.709
Matrix coefficients : BT.709
Audio #1
ID : 2
Format : AC-3
Format/Info : Audio Coding 3
Mode extension : CM (complete main)
Format settings, Endianness : Big
Codec ID : A_AC3
Duration : 1h 42mn
Bit rate mode : Constant
Bit rate : 448 Kbps
Channel(s) : 6 channels
Channel positions : Front: L C R, Side: L R, LFE
Sampling rate : 48.0 KHz
Bit depth : 16 bits
Compression mode : Lossy
Stream size : 327 MiB (2%)
Title : DVO, Studio Inis
Language : Russian
Default : Yes
Forced : No
Audio #2
ID : 3
Format : AC-3
Format/Info : Audio Coding 3
Mode extension : CM (complete main)
Format settings, Endianness : Big
Codec ID : A_AC3
Duration : 1h 42mn
Bit rate mode : Constant
Bit rate : 448 Kbps
Channel(s) : 6 channels
Channel positions : Front: L C R, Side: L R, LFE
Sampling rate : 48.0 KHz
Bit depth : 16 bits
Compression mode : Lossy
Stream size : 327 MiB (2%)
Title : AVO, A.Alexeev
Language : Russian
Default : No
Forced : No
Audio #3
ID : 4
Format : AC-3
Format/Info : Audio Coding 3
Mode extension : CM (complete main)
Format settings, Endianness : Big
Codec ID : A_AC3
Duration : 1h 42mn
Bit rate mode : Constant
Bit rate : 192 Kbps
Channel(s) : 2 channels
Channel positions : Front: L R
Sampling rate : 48.0 KHz
Bit depth : 16 bits
Compression mode : Lossy
Stream size : 140 MiB (1%)
Title : DVO, Interfilm
Language : Russian
Default : No
Forced : No
Audio #4
ID : 5
Format : DTS
Format/Info : Digital Theater Systems
Codec ID : A_DTS
Duration : 1h 42mn
Bit rate mode : Constant
Bit rate : 1 510 Kbps
Channel(s) : 6 channels
Channel positions : Front: L C R, Side: L R, LFE
Sampling rate : 48.0 KHz
Bit depth : 24 bits
Compression mode : Lossy
Stream size : 1.08 GiB (8%)
Title : Original
Language : English
Default : No
Forced : No
Text #1
ID : 6
Format : UTF-8
Codec ID : S_TEXT/UTF8
Codec ID/Info : UTF-8 Plain Text
Title : Russian
Language : Russian
Default : No
Forced : No
Text #2
ID : 7
Format : UTF-8
Codec ID : S_TEXT/UTF8
Codec ID/Info : UTF-8 Plain Text
Title : English
Language : English
Default : No
Forced : No
Text #3
ID : 8
Format : UTF-8
Codec ID : S_TEXT/UTF8
Codec ID/Info : UTF-8 Plain Text
Title : English-SDH
Language : English
Default : No
Forced : No
Menu
00:00:00.000 : en:00:00:00.000
00:01:20.747 : en:00:01:20.747
00:04:24.639 : en:00:04:24.639
00:10:39.973 : en:00:10:39.973
00:13:39.152 : en:00:13:39.152
00:16:52.678 : en:00:16:52.678
00:21:46.305 : en:00:21:46.305
00:25:01.500 : en:00:25:01.500
00:29:24.763 : en:00:29:24.763
00:32:43.503 : en:00:32:43.503
00:34:31.236 : en:00:34:31.236
00:40:06.362 : en:00:40:06.362
00:44:31.419 : en:00:44:31.419
00:47:32.308 : en:00:47:32.308
00:55:26.823 : en:00:55:26.823
00:58:53.780 : en:00:58:53.780
01:03:36.229 : en:01:03:36.229
01:11:02.467 : en:01:11:02.467
01:13:21.355 : en:01:13:21.355
01:17:19.802 : en:01:17:19.802
01:21:34.973 : en:01:21:34.973
01:28:49.908 : en:01:28:49.908
01:30:38.683 : en:01:30:38.683
01:35:57.752 : en:01:35:57.752

Скриншоты

Source vs Encode vs Scene




Скриншоты сравнения c HDTV 1080p

[url=http://***/forum/viewtopic.php?t=923970]http://***/forum/viewtopic.php?t=923970[/url]
HDTVRip 1080p vs BDRip 1080p






Переводы в обоих релизах идентичны, профессиональный двухголосый, озвучено студией "Инис" по заказу компании Централ Партнершип.
Но, не взирая на сравнения, лучше оставить оба релиза, т.к. разные весовые категории.

Дополнительно

Видеоряд от CRiSC

RELEASE.NAME....: Cashback.2006.1080p.BluRay.DTS.x264-CRiSC.mkv
IMDb............: http://www.imdb.com/title/tt0460740/
RUNTiME.........: 01:42:03
SiZE............: 12.4 GB
ViDEO.CODEC.....: x264
FRAMERATE.......: 23.976
BiTRATE.........: ~16003 kbps
RESOLUTiON......: 1920x818
AUDiO...........: English DTS 5.1 1509 kbps
CHAPTERS........: Yes
SUBTiTLES.......: English .srt
ENCODER.........: Kuningas
RELEASE.DATE....: 22.11.2013
SOURCE..........: Cashback 2006 1080p JPN Blu-ray AVC DTS-HD MA 5.1-insinuendo
x264:
x264 [info]: profile High, level 4.1
x264 [info]: frame I:1071 Avg QP:16.37 size:238221
x264 [info]: frame P:28099 Avg QP:17.72 size:143016
x264 [info]: frame B:117646 Avg QP:19.75 size: 67791
x264 [info]: consecutive B-frames: 1.1% 0.9% 3.6% 17.0% 17.7% 40.1% 9.2% 10.4%
encoded 146816 frames, 4.95 fps, 16002.86 kb/s
Авторскую аудиодорожку А. Алексеева предоставил [url=http://***/forum/profile.php?mode=viewprofile&u=9372409]budulai-8[/url] в [url=http://***/forum/viewtopic.php?t=1517264]теме переводчика[/url], за что ему спасибо.
Скачать

Скачать торрент!

Как скачивать? · Что такое торрент? · Рейтинг и ограничения

Сайт не распространяет и не хранит электронные версии произведений, а лишь предоставляет доступ к создаваемому пользователями каталогу ссылок на торрент-файлы, которые содержат только списки хеш-сумм

[Профиль] [ЛС]
Показать сообщения:    
Ответить на тему

Текущее время: Сегодня 21:41

Часовой пояс: GMT + 4



Вы не можете начинать темы
Вы не можете отвечать на сообщения
Вы не можете редактировать свои сообщения
Вы не можете удалять свои сообщения
Вы не можете голосовать в опросах
Вы не можете прикреплять файлы к сообщениям
Вы не можете скачивать файлы