Реаниматор / Re-Animator (Стюарт Гордон / Stuart Gordon) [1985, США, ужасы, фантастика, BDRip 720p] [Полная версия / Integral Version] DVO (Гланц и Королёва) + Original (ENG) + Subs (RUS, ENG)

Ответить на тему
 
Автор Сообщение

user ®

Стаж: 7 лет 7 месяцев

Сообщений: 20008

Пост Пост: #1 от 25-Ноя-2013 21:50

[Цитировать]

Реаниматор / Re-Animator
Полная версия / Integral Version
Год выпуска: 1985
Страна: США
Жанр: ужасы, фантастика
Продолжительность: 01:44:55
Перевод: профессиональный двухголосный закадровый
Cубтитры: русские, английские
Оглавление: 10 глав
Режиссер: Стюарт Гордон /Stuart Gordon/
В ролях: Джеффри Комбс /Jeffrey Combs/, Брюс Эбботт /Bruce Abbott/, Барбара Крэмптон /Barbara Crampton/, Дэвид Гэйл /David Gale/, Роберт Сэмпсон /Robert Sampson/, Джерри Блэк /Gerry Black/, Кэролин Пёрди-Гордон /Carolyn Purdy-Gordon/, Питер Кент /Peter Kent/
Описание:
Мертвецов реанимирует с помощью таинственной сыворотки, полученной в результате немыслимых экспериментов, студент медицинского университета Герберт Вест. Сосед Веста по комнате Дэн помогает приятелю в его страшном деле.
Начинают они с кошки, потом добираются до трупов из университетского морга…
Дополнительная информация:
IMDB User Rating→: 7.2/10 (27,998 votes)
Рейтинг фильма КиноПоиск.Ru→: 7.008 (3 351 голос)
  • Дорожка №1 получена наложением чистого голоса на центр декодированного DTS-HD MA;
  • На отрезке 00:13:17 - 00:13:40 несколько фраз остались без озвучки. Они переведены форсированными субтитрами.
Качество: BDRip (by BodoiCuHo@TayTO)
Контейнер: MKV
Видеопоток: 1280x720p, 23.976 fps, x264 ~8159 kbps
Аудиопоток №1 (RUS): DD 5.1, 48 kHz, 640 kbps | профессиональный двухголосный закадровый (Пётр Гланц и Инна Королёва)
Аудиопоток №2 (ENG): DD 5.1, 48 kHz, 640 kbps
Субтитры №1 (RUS): SRT/UTF8 | форсированные
Субтитры №2 (RUS): SRT/UTF8 | полные
Субтитры №3 (ENG): SRT/UTF8
Сэмпл: Яндекс.Диск→, multi-up→, nekaka→, sendspace→

x264 Log

x264 [info]: frame I:856   Avg QP:16.45  size:118089
x264 [info]: frame P:27374 Avg QP:17.86  size: 64143
x264 [info]: frame B:122710 Avg QP:20.44  size: 38405
x264 [info]: consecutive B-frames:  0.9%  0.9%  4.0%  7.5% 10.9% 57.7%  9.1%  4.5%  3.0%  1.6%

MediaInfo

General
Unique ID                                : 172340342177722674132582696007581276338 (0x81A78AE561F70877B1281DCAEABB98B2)
Complete name                            : Re-Animator.1985.Integral.Version.720p.BDRip.x264.DD.SRT-TayTO.mkv
Format                                   : Matroska
Format version                           : Version 2
File size                                : 7.06 GiB
Duration                                 : 1h 44mn
Overall bit rate                         : 9 631 Kbps
Movie name                               : Re-Animator (1985) Integral Version 720p BDRip by TayTO
Encoded date                             : UTC 2013-11-25 01:40:01
Writing application                      : mkvmerge v6.1.0 ('Old Devil') built on Mar  2 2013 14:32:37
Writing library                          : libebml v1.3.0 + libmatroska v1.4.0
Video
ID                                       : 1
Format                                   : AVC
Format/Info                              : Advanced Video Codec
Format profile                           : High@L4.1
Format settings, CABAC                   : Yes
Format settings, ReFrames                : 9 frames
Codec ID                                 : V_MPEG4/ISO/AVC
Duration                                 : 1h 44mn
Bit rate                                 : 8 159 Kbps
Width                                    : 1 280 pixels
Height                                   : 720 pixels
Display aspect ratio                     : 16:9
Frame rate mode                          : Constant
Frame rate                               : 23.976 fps
Color space                              : YUV
Chroma subsampling                       : 4:2:0
Bit depth                                : 8 bits
Scan type                                : Progressive
Bits/(Pixel*Frame)                       : 0.369
Stream size                              : 5.98 GiB (85%)
Title                                    : 1280x720, 23.976 fps, x264 ~8171 kbps
Writing library                          : x264 core 138 r2358 9e941d1
Encoding settings                        : cabac=1 / ref=9 / deblock=1:-3:-3 / analyse=0x3:0x133 / me=tesa / subme=11 / psy=1 / psy_rd=1.20:0.00 / mixed_ref=1 / me_range=16 / chroma_me=1 / trellis=2 / 8x8dct=1 / cqm=0 / deadzone=21,11 / fast_pskip=0 / chroma_qp_offset=-2 / threads=12 / lookahead_threads=2 / sliced_threads=0 / nr=0 / decimate=1 / interlaced=0 / bluray_compat=0 / constrained_intra=0 / bframes=9 / b_pyramid=2 / b_adapt=2 / b_bias=0 / direct=3 / weightb=1 / open_gop=0 / weightp=2 / keyint=250 / keyint_min=23 / scenecut=40 / intra_refresh=0 / rc=crf / mbtree=0 / crf=18.0 / qcomp=0.60 / qpmin=0 / qpmax=69 / qpstep=4 / ip_ratio=1.40 / pb_ratio=1.30 / aq=1:0.55
Language                                 : English
Default                                  : Yes
Forced                                   : No
Matrix coefficients                      : BT.709
Audio #1
ID                                       : 2
Format                                   : AC-3
Format/Info                              : Audio Coding 3
Mode extension                           : CM (complete main)
Format settings, Endianness              : Big
Codec ID                                 : A_AC3
Duration                                 : 1h 44mn
Bit rate mode                            : Constant
Bit rate                                 : 640 Kbps
Channel(s)                               : 6 channels
Channel positions                        : Front: L C R, Side: L R, LFE
Sampling rate                            : 48.0 KHz
Bit depth                                : 16 bits
Compression mode                         : Lossy
Stream size                              : 480 MiB (7%)
Title                                    : RUS DVO Гланц DD 5.1, 48 kHz, 640 kbps
Language                                 : Russian
Default                                  : Yes
Forced                                   : No
Audio #2
ID                                       : 3
Format                                   : AC-3
Format/Info                              : Audio Coding 3
Mode extension                           : CM (complete main)
Format settings, Endianness              : Big
Codec ID                                 : A_AC3
Duration                                 : 1h 44mn
Bit rate mode                            : Constant
Bit rate                                 : 640 Kbps
Channel(s)                               : 6 channels
Channel positions                        : Front: L C R, Side: L R, LFE
Sampling rate                            : 48.0 KHz
Bit depth                                : 16 bits
Compression mode                         : Lossy
Stream size                              : 480 MiB (7%)
Title                                    : ENG DD 5.1, 48 kHz, 640 kbps
Language                                 : English
Default                                  : No
Forced                                   : No
Text #1
ID                                       : 4
Format                                   : UTF-8
Codec ID                                 : S_TEXT/UTF8
Codec ID/Info                            : UTF-8 Plain Text
Title                                    : RUS Forced SRT
Language                                 : Russian
Default                                  : Yes
Forced                                   : No
Text #2
ID                                       : 5
Format                                   : UTF-8
Codec ID                                 : S_TEXT/UTF8
Codec ID/Info                            : UTF-8 Plain Text
Title                                    : RUS SRT
Language                                 : Russian
Default                                  : No
Forced                                   : No
Text #3
ID                                       : 6
Format                                   : UTF-8
Codec ID                                 : S_TEXT/UTF8
Codec ID/Info                            : UTF-8 Plain Text
Title                                    : ENG SRT
Language                                 : English
Default                                  : No
Forced                                   : No
Menu
00:00:00.000                             : en:00:00:00.000
00:10:31.965                             : en:00:10:31.965
00:26:16.200                             : en:00:26:16.200
00:40:25.632                             : en:00:40:25.632
00:55:10.849                             : en:00:55:10.849
01:07:20.245                             : en:01:07:20.245
01:17:38.112                             : en:01:17:38.112
01:27:49.473                             : en:01:27:49.473
01:36:53.099                             : en:01:36:53.099
01:41:29.125                             : en:01:41:29.125

Bitrate Viewer

Скриншоты


Source vs. TayTO


Скачать

Скачать торрент!

Как скачивать? · Что такое торрент? · Рейтинг и ограничения

Сайт не распространяет и не хранит электронные версии произведений, а лишь предоставляет доступ к создаваемому пользователями каталогу ссылок на торрент-файлы, которые содержат только списки хеш-сумм

[Профиль] [ЛС]
Показать сообщения:    
Ответить на тему

Текущее время: Сегодня 03:48

Часовой пояс: GMT + 4



Вы не можете начинать темы
Вы не можете отвечать на сообщения
Вы не можете редактировать свои сообщения
Вы не можете удалять свои сообщения
Вы не можете голосовать в опросах
Вы не можете прикреплять файлы к сообщениям
Вы не можете скачивать файлы