Тор 2: Царство тьмы / Thor: The Dark World (Алан Тейлор / Alan Taylor) [2013, США, фэнтези, боевик, приключения, CamRip] Dub

Ответить на тему
 
Автор Сообщение

user ®

Стаж: 7 лет 7 месяцев

Сообщений: 20008

Пост Пост: #1 от 25-Ноя-2013 21:50

[Цитировать]

Тор 2: Царство тьмы / Thor: The Dark World
Страна: США
Жанр: фэнтези, боевик, приключения
Год выпуска: 2013
Продолжительность: 01:46:21
Перевод: Профессиональный (дублированный)
Cубтитры: нет
Оригинальная аудиодорожка: нет
Режиссер: Алан Тейлор / Alan Taylor
В ролях: Крис Хемсворт (Thor), Натали Портман (Jane Foster), Том Хиддлстон (Loki), Энтони Хопкинс (Odin), Кристофер Экклстон (Malekith), Джейми Александер (Sif), Закари Левай (Fandral), Рэй Стивенсон (Volstagg), Таданобу Асано (Hogun), Идрис Эльба (Heimdall), Рене Руссо (Frigga), Адевале Акинойе-Агбаже (Algrim /Kurse)
Описание: Тору предстоит сразиться за спасение Земли и Девяти Миров от таинственного врага из времен, предшествовавших возникновению вселенной. После событий «Тора» и «Мстителей» главный герой борется за восстановление порядка в космосе, но древняя раса во главе с мстительным Малекитом возвращается, чтобы погрузить вселенную обратно во тьму. Столкнувшись с врагом, которому не способен противостоять ни Один, ни весь Асгард, Тор отправляется в самое рискованное путешествие, которое воссоединит его с Джейн Фостер с Земли и заставит пожертвовать всем ради спасения вселенной.
Доп. информация: Отсутствует около 6 минут перевода!

Сэмпл: http://sendfile.su/901250
Качество видео: CamRip
Формат видео: AVI
Видео: XviD, 1648 Кбит/сек, 720х272, 25,000 кадров/сек
Аудио: MP3, 192 Кбит/сек, 2 канала, 44,1 КГц

MediaInfo

Формат : AVI
Формат/Информация : Audio Video Interleave
Размер файла : 1,37 Гбайт
Продолжительность : 1 ч. 46 м.
Общий поток : 1850 Кбит/сек
Библиотека кодирования : VirtualDub build 35390/release
Видео
Идентификатор : 0
Формат : MPEG-4 Visual
Профиль формата : Advanced Simple@L5
Параметр BVOP формата : 2
Параметр QPel формата : Нет
Параметр GMC формата : Без точки перехода
Параметр матрицы формата : Default (H.263)
Режим смешивания : Сжатый битовый поток
Идентификатор кодека : XVID
Идентификатор кодека/Подсказка : XviD
Продолжительность : 1 ч. 46 м.
Битрейт : 1648 Кбит/сек
Ширина : 720 пикселей
Высота : 272 пикселя
Соотношение сторон : 2,647
Частота кадров : 25,000 кадров/сек
Цветовое пространство : YUV
Субдискретизация насыщенности : 4:2:0
Битовая глубина : 8 бит
Тип развёртки : Прогрессивная
Метод сжатия : С потерями
Бит/(Пиксели*Кадры) : 0.337
Размер потока : 1,22 Гбайт (89%)
Библиотека кодирования : XviD 64
Аудио
Идентификатор : 1
Формат : MPEG Audio
Версия формата : Version 1
Профиль формата : Layer 3
Режим : Joint stereo
Расширение режима : MS Stereo
Идентификатор кодека : 55
Идентификатор кодека/Подсказка : MP3
Продолжительность : 1 ч. 46 м.
Вид битрейта : Постоянный
Битрейт : 192 Кбит/сек
Каналы : 2 канала
Частота : 44,1 КГц
Метод сжатия : С потерями
Размер потока : 146 Мбайт (10%)
Выравнивание : Разделение по промежуткам
Продолжительность промежутка : 40 мс. (1,00 видеокадр)
Время предзагрузки промежутка : 500 мс.

Скриншот c названием фильма

Скриншоты

Скачать

Скачать торрент!

Как скачивать? · Что такое торрент? · Рейтинг и ограничения

Сайт не распространяет и не хранит электронные версии произведений, а лишь предоставляет доступ к создаваемому пользователями каталогу ссылок на торрент-файлы, которые содержат только списки хеш-сумм

[Профиль] [ЛС]
Показать сообщения:    
Ответить на тему

Текущее время: Сегодня 23:45

Часовой пояс: GMT + 4



Вы не можете начинать темы
Вы не можете отвечать на сообщения
Вы не можете редактировать свои сообщения
Вы не можете удалять свои сообщения
Вы не можете голосовать в опросах
Вы не можете прикреплять файлы к сообщениям
Вы не можете скачивать файлы