Высота "Гамбургер" / Hamburger Hill (Джон Ирвин / John Irvin) [1987, США, боевик, драма, военный, BDRip 720p] DVO + AVO (Живов) + Original eng + Sub rus, eng

Ответить на тему
 
Автор Сообщение

user ®

Стаж: 7 лет 7 месяцев

Сообщений: 20008

Пост Пост: #1 от 25-Ноя-2013 06:50

[Цитировать]

Высота Гамбургер / Hamburger Hill
Страна: США
Жанр: боевик, драма, военный
Год выпуска: 1987
Продолжительность: 01:49:47
Перевод#1: Профессиональный (двухголосый закадровый) | [url=http://***/forum/viewtopic.php?t=3700820]Elrom[/url]
Перевод#2: Авторский (одноголосый закадровый), Ю. Живов
Cубтитры: русские, английские
Оригинальная аудиодорожка: английский
Режиссер: Джон Ирвин
В ролях: Энтони Баррил, Майкл Ботмэн, Дон Чидл, Майкл Долан, Дон Джеймс, Дилан МакДермотт, Майкл Никлз, Гарри О’Рейли, Дэниэл О’Ши, Тим Куилл, Томми Свердлоу, Кортни Б. Вэнс, Стивен Уэбер, Теган Уэст, Кью Чинх, Даг Гудман
Описание: Вьетнам, май 1969 года. Десять дней измотанные войной солдаты отряда «Браво» 101-й дивизии штурмуют высоту 937, прозванную "Гамбургером". Этот ничем не примечательный холм перемалывает людей как мясорубка, и каждая его пядь буквально пропитана кровью. Потери составляют 70%, но молодым американцам приходится вновь и вновь подниматься в атаку. Война сама по себе ад, но высота "Гамбургер" намного хуже ада…

Тип релиза: BDRip 720p (от DON) | sample
Контейнер: MKV
Видео кодек: x264
Видео: 1280x720 (16:9), 23.976 fps, ~9730 Kbps, 0.44 bit/pixel
Аудио #1: Russian AC3 2ch 48kHz 192Kbps | DVO Elrom
Аудио #2: Russian AC3 6ch 48kHz 384Kbps | AVO Живов
Аудио #3: English DTS 6ch 48kHz 1510Kbps | Original
Формат субтитров: softsub (SRT)

MediaInfo

General
Complete name : E:\...\Hamburger.Hill.1987.720p.BluRay.x264.Rus.Eng-DON.mkv
Format : Matroska
Format version : Version 2
File size : 9.06 GiB
Duration : 1h 49mn
Overall bit rate : 11.8 Mbps
Movie name : Hamburger.Hill.1987.720p.BluRay.x264.Rus.Eng-DON
Encoded date : UTC 2013-11-25 01:25:22
Writing application : mkvmerge v6.5.0 ('Isn't she lovely') built on Oct 20 2013 12:50:05
Writing library : libebml v1.3.0 + libmatroska v1.4.1
Video
ID : 1
Format : AVC
Format/Info : Advanced Video Codec
Format profile : High@L4.1
Format settings, CABAC : Yes
Format settings, ReFrames : 6 frames
Codec ID : V_MPEG4/ISO/AVC
Duration : 1h 49mn
Bit rate : 9 495 Kbps
Width : 1 280 pixels
Height : 720 pixels
Display aspect ratio : 16:9
Frame rate mode : Constant
Frame rate : 23.976 fps
Color space : YUV
Chroma subsampling : 4:2:0
Bit depth : 8 bits
Scan type : Progressive
Bits/(Pixel*Frame) : 0.430
Stream size : 7.28 GiB (80%)
Title : DON
Language : English
Default : No
Forced : No
Audio #1
ID : 2
Format : AC-3
Format/Info : Audio Coding 3
Mode extension : CM (complete main)
Format settings, Endianness : Big
Codec ID : A_AC3
Duration : 1h 49mn
Bit rate mode : Constant
Bit rate : 192 Kbps
Channel(s) : 2 channels
Channel positions : Front: L R
Sampling rate : 48.0 KHz
Bit depth : 16 bits
Compression mode : Lossy
Stream size : 151 MiB (2%)
Title : DVO Elrom
Language : Russian
Default : Yes
Forced : No
Audio #2
ID : 3
Format : AC-3
Format/Info : Audio Coding 3
Mode extension : CM (complete main)
Format settings, Endianness : Big
Codec ID : A_AC3
Duration : 1h 49mn
Bit rate mode : Constant
Bit rate : 384 Kbps
Channel(s) : 6 channels
Channel positions : Front: L C R, Side: L R, LFE
Sampling rate : 48.0 KHz
Bit depth : 16 bits
Compression mode : Lossy
Stream size : 302 MiB (3%)
Title : AVO Zhivov
Language : Russian
Default : No
Forced : No
Audio #3
ID : 4
Format : DTS
Format/Info : Digital Theater Systems
Codec ID : A_DTS
Duration : 1h 49mn
Bit rate mode : Constant
Bit rate : 1 510 Kbps
Channel(s) : 6 channels
Channel positions : Front: L C R, Side: L R, LFE
Sampling rate : 48.0 KHz
Bit depth : 24 bits
Compression mode : Lossy
Stream size : 1.16 GiB (13%)
Title : Original
Language : English
Default : No
Forced : No
Text #1
ID : 5
Format : UTF-8
Codec ID : S_TEXT/UTF8
Codec ID/Info : UTF-8 Plain Text
Language : Russian
Default : No
Forced : No
Text #2
ID : 6
Format : UTF-8
Codec ID : S_TEXT/UTF8
Codec ID/Info : UTF-8 Plain Text
Language : English
Default : No
Forced : No

Скриншоты




vs [url=http://***/forum/viewtopic.php?t=2536209]hV[/url]
* Перезалито 25.11, прикручена двухголоска
Скачать

Скачать торрент!

Как скачивать? · Что такое торрент? · Рейтинг и ограничения

Сайт не распространяет и не хранит электронные версии произведений, а лишь предоставляет доступ к создаваемому пользователями каталогу ссылок на торрент-файлы, которые содержат только списки хеш-сумм

[Профиль] [ЛС]
Показать сообщения:    
Ответить на тему

Текущее время: Сегодня 19:26

Часовой пояс: GMT + 4



Вы не можете начинать темы
Вы не можете отвечать на сообщения
Вы не можете редактировать свои сообщения
Вы не можете удалять свои сообщения
Вы не можете голосовать в опросах
Вы не можете прикреплять файлы к сообщениям
Вы не можете скачивать файлы