Росомаха: Бессмертный / The Wolverine (Джеймс Мэнголд / James Mangold) [2013, США, фантастика, боевик, комикс, BDRip 1080p] [Расширенная версия / Extended Cut] Dub + Sub Rus + Original Eng

Ответить на тему
 
Автор Сообщение

user ®

Стаж: 7 лет 7 месяцев

Сообщений: 20008

Пост Пост: #1 от 25-Ноя-2013 03:40

[Цитировать]

-Росомаха: Бессмертный / The Wolverine / Расширенная версия / Extended Cut-Страна: США
Студия: 20th Century Fox Film Corporation
Жанр: фантастика, боевик, комикс
Год выпуска: 2013
Продолжительность: 02:18:05-Перевод: Профессиональный (дублированный)
Cубтитры: русские (форсированные и полные), английские (полные, для слабослышащих и форсированные на иностранную речь)
Оригинальная аудиодорожка: английский-Режиссер: Джеймс Мэнголд / James Mangold
В ролях: Хью Джекман, Тао Окамото, Рила Фукусима, Светлана Ходченкова, Уилл Юн Ли, Харукико Яманоути, Хироюки Санада, Брайан Ти, Кен Ямамура, Фамке Янссен-Описание: Новая глава приключений Росомахи развернётся в Японии, где Логану предстоит выяснить, что острее - когти Росомахи или меч Серебряного Самурая.-Доп. информация: Японская речь переведена форсиованными субтитрами, за которые спасибо lankano.
Сэмпл: http://yadi.sk/d/LZyRqS2jDDWBE-Тип релиза: BDRip 1080p
Контейнер: MKV
Видео: MPEG-4 AVC Video 10.2 Mbps 1920x796p / 23,976 fps / High Profile 4.1
Аудио: DTS Audio Russian 5.1 / 48 kHz / 768 kbps
Аудио 2: DTS Audio English 5.1 / 48 kHz / 1509 kbps
Формат субтитров: softsub (SRT)

Видеоряд от WiKi

The Wolverine 2013 EXTENDED 1080p RERiP BluRay x264 DTS-WiKi
.PlotTAGLINE...................: The WolverineGENRE.....................: Action | Adventure | FantasyIMDb RATING...............: 6.9/10 from 115,650 usersIMDb LINK.................: http://www.imdb.com/title/tt1430132ENCODER...................: iNKRELEASE DATE..............: 2013.11.21RELEASE SIZE..............: 12.7 GiBSOURCE....................: 1080p Blu-ray AVC DTS-HD MA 7.1-oOo.Media.InfoRUNTIME...................: 2h:18m:14sVIDEO CODEC...............: x264: 2pass-L4.1 @ 10.2 MbpsRESOLUTION................: 1920 x 796DISPLAY ASPECT RATIO......: 2.35:1FRAME RATE................: 23.976 fpsAUDiO CODEC...............: English DTS 5.1 @ 1.5 MbpsAUDiO CODEC...............: Mandarin DTS 5.1 @ 1.5 Mbps.x264.Infox264 [info]: profile High, level 4.1x264 [info]: frame I:1606 Avg QP:15.69 size:217529x264 [info]: frame P:54525 Avg QP:17.36 size: 96876x264 [info]: frame B:142517 Avg QP:19.09 size: 34872x264 [info]: consecutive B-frames: 6.4% 7.1% 11.8% 17.2% 19.9% 32.1% 3.9% 0.7% 0.8%
Source(32.1Mbps) WiKi(RERiP)


MI

General
Complete name                    : X:\  -= Фильмы =-\Росомаха. Бессмертный (2013. The Wolverine) [Extended Cut].mkv
Format                           : Matroska
File size                        : 12.1 GiB
Duration                         : 2h 18mn
Overall bit rate                 : 12.5 Mbps
Movie name                       : Release for RuTracker
Encoded date                     : UTC 2013-11-24 13:18:51
Writing application              : mkvmerge v4.9.1 ('Ich will') сборка от Jul 11 2011 23:53:15
Writing library                  : libebml v1.2.1 + libmatroska v1.1.1
Video
ID                               : 1
Format                           : AVC
Format/Info                      : Advanced Video Codec
Format profile                   : High@L4.1
Format settings, CABAC           : Yes
Format settings, ReFrames        : 5 frames
Muxing mode                      : Container profile=Unknown@4.1
Codec ID                         : V_MPEG4/ISO/AVC
Duration                         : 2h 18mn
Bit rate                         : 10.2 Mbps
Width                            : 1 920 pixels
Height                           : 796 pixels
Display aspect ratio             : 2.40:1
Frame rate                       : 23.976 fps
Color space                      : YUV
Chroma subsampling               : 4:2:0
Bit depth                        : 8 bits
Scan type                        : Progressive
Bits/(Pixel*Frame)               : 0.279
Stream size                      : 9.65 GiB (80%)
Title                            : The.Wolverine.2013.EXTENDED.1080p.RERiP.BluRay.x264.DTS-WiKi
Writing library                  : x264 core 133 r2334 a3ac64b
Encoding settings                : cabac=1 / ref=5 / deblock=1:-3:-3 / analyse=0x3:0x113 / me=umh / subme=11 / psy=1 / psy_rd=1.05:0.10 / mixed_ref=1 / me_range=32 / chroma_me=1 / trellis=2 / 8x8dct=1 / cqm=0 / deadzone=21,11 / fast_pskip=0 / chroma_qp_offset=-5 / threads=12 / lookahead_threads=2 / sliced_threads=0 / nr=0 / decimate=0 / interlaced=0 / bluray_compat=0 / constrained_intra=0 / bframes=8 / b_pyramid=2 / b_adapt=2 / b_bias=0 / direct=3 / weightb=1 / open_gop=0 / weightp=2 / keyint=250 / keyint_min=23 / scenecut=40 / intra_refresh=0 / rc=2pass / mbtree=0 / bitrate=10238 / ratetol=1.0 / qcomp=0.85 / qpmin=0 / qpmax=69 / qpstep=4 / cplxblur=20.0 / qblur=0.5 / ip_ratio=1.20 / pb_ratio=1.30 / aq=1:0.85
Language                         : English
Audio #1
ID                               : 2
Format                           : DTS
Format/Info                      : Digital Theater Systems
Codec ID                         : A_DTS
Duration                         : 2h 18mn
Bit rate mode                    : Constant
Bit rate                         : 755 Kbps
Channel(s)                       : 6 channels
Channel positions                : Front: L C R, Side: L R, LFE
Sampling rate                    : 48.0 KHz
Bit depth                        : 24 bits
Stream size                      : 745 MiB (6%)
Title                            : Dub [BD EUR]
Language                         : Russian
Audio #2
ID                               : 3
Format                           : DTS
Format/Info                      : Digital Theater Systems
Format profile                   : ES
Codec ID                         : A_DTS
Duration                         : 2h 18mn
Bit rate mode                    : Constant
Bit rate                         : 1 510 Kbps
Channel(s)                       : 6 channels
Channel positions                : Front: L C R, Side: L R, LFE
Sampling rate                    : 48.0 KHz
Bit depth                        : 24 bits
Stream size                      : 1.46 GiB (12%)
Title                            : English
Language                         : English
Text #1
ID                               : 4
Format                           : UTF-8
Codec ID                         : S_TEXT/UTF8
Codec ID/Info                    : UTF-8 Plain Text
Title                            : forced
Language                         : Russian
Text #2
ID                               : 5
Format                           : UTF-8
Codec ID                         : S_TEXT/UTF8
Codec ID/Info                    : UTF-8 Plain Text
Title                            : full
Language                         : Russian
Text #3
ID                               : 6
Format                           : UTF-8
Codec ID                         : S_TEXT/UTF8
Codec ID/Info                    : UTF-8 Plain Text
Language                         : Ukrainian
Text #4
ID                               : 7
Format                           : UTF-8
Codec ID                         : S_TEXT/UTF8
Codec ID/Info                    : UTF-8 Plain Text
Title                            : Foreign parts
Language                         : English
Text #5
ID                               : 8
Format                           : UTF-8
Codec ID                         : S_TEXT/UTF8
Codec ID/Info                    : UTF-8 Plain Text
Language                         : English
Text #6
ID                               : 9
Format                           : UTF-8
Codec ID                         : S_TEXT/UTF8
Codec ID/Info                    : UTF-8 Plain Text
Title                            : SDH
Language                         : English
Menu
00:00:00.000                     : en:Chapter 1
00:05:03.720                     : en:Chapter 2
00:07:39.792                     : en:Chapter 3
00:08:40.561                     : en:Chapter 4
00:10:24.373                     : en:Chapter 5
00:13:55.668                     : en:Chapter 6
00:16:48.173                     : en:Chapter 7
00:20:32.648                     : en:Chapter 8
00:23:36.915                     : en:Chapter 9
00:29:13.585                     : en:Chapter 10
00:33:42.770                     : en:Chapter 11
00:35:14.779                     : en:Chapter 12
00:38:36.522                     : en:Chapter 13
00:43:04.957                     : en:Chapter 14
00:47:55.080                     : en:Chapter 15
00:49:31.843                     : en:Chapter 16
00:52:23.098                     : en:Chapter 17
00:59:32.318                     : en:Chapter 18
01:01:31.354                     : en:Chapter 19
01:07:00.516                     : en:Chapter 20
01:13:10.260                     : en:Chapter 21
01:18:52.227                     : en:Chapter 22
01:23:40.473                     : en:Chapter 23
01:26:47.160                     : en:Chapter 24
01:29:50.927                     : en:Chapter 25
01:35:19.380                     : en:Chapter 26
01:38:28.193                     : en:Chapter 27
01:41:43.639                     : en:Chapter 28
01:48:33.006                     : en:Chapter 29
01:52:05.969                     : en:Chapter 30
01:54:56.264                     : en:Chapter 31
01:58:03.493                     : en:Chapter 32
02:03:01.999                     : en:Chapter 33
02:04:57.406                     : en:Chapter 34
02:07:46.700                     : en:Chapter 35
02:09:17.374                     : en:Chapter 36
Скачать

Скачать торрент!

Как скачивать? · Что такое торрент? · Рейтинг и ограничения

Сайт не распространяет и не хранит электронные версии произведений, а лишь предоставляет доступ к создаваемому пользователями каталогу ссылок на торрент-файлы, которые содержат только списки хеш-сумм

[Профиль] [ЛС]
Показать сообщения:    
Ответить на тему

Текущее время: Сегодня 05:59

Часовой пояс: GMT + 4



Вы не можете начинать темы
Вы не можете отвечать на сообщения
Вы не можете редактировать свои сообщения
Вы не можете удалять свои сообщения
Вы не можете голосовать в опросах
Вы не можете прикреплять файлы к сообщениям
Вы не можете скачивать файлы