Марафон (Карен Оганесян) [2013, комедия, WEB-DL, AVC]

Ответить на тему
 
Автор Сообщение

user ®

Стаж: 7 лет 7 месяцев

Сообщений: 20008

Пост Пост: #1 от 25-Ноя-2013 03:40

[Цитировать]

Марафон
Жанр: комедия
Год выпуска: 2013
Продолжительность: 01:41:00
Режиссёр: Карен Оганесян
В ролях: Михаил Пореченков, Екатерина Васильева, Юлия Пересильд, Анатолий Белый, Игорь Савочкин, Ольга Волкова, Сергей Газаров, Анна Михалкова
Описание: Жизнь Толика не удалась, спортивная карьера не состоялась, жена ушла к другому. Неуспешный, нелюбимый, безнадежный он потерял веру в себя. Все меняет случайная встреча со странной незнакомкой Анной Ильиничной, которая предлагает ему принять участие в необычном марафоне в далекой Америке…

Доп. информация:
Премьера (мир): 4 июля 2013
Премьера (РФ): 4 июля 2013, «Централ Партнершип»
Релиз на DVD: 12 сентября 2013, «CD Land»


Сэмпл: http://multi-up.com/926514
Качество видео: WEB-DL
Формат видео: MKV
Видео: 960x718 (16:9), 25.000 fps, AVC, 3 640 Kbps
Аудио: AC3, 384 Kbps, 48.0 KHz, 6 ch Russian

MediaInfo

General
Complete name : Marafon.2013.720p.WEB-DL.Rus.mkv
Format : Matroska
File size : 2.90 GiB
Duration : 1h 41mn
Overall bit rate : 4 105 Kbps
Movie name : Marafon (2013) - Release for HDCLUB
Encoded date : UTC 2013-11-15 19:29:13
Writing application : mkvmerge v3.4.0 ('Rapunzel') built on May 15 2010 09:38:20
Writing library : libebml v0.8.0 + libmatroska v0.9.0
Video
ID : 1
Format : AVC
Format/Info : Advanced Video Codec
Format profile : Main@L3.1
Format settings, CABAC : No
Format settings, ReFrames : 2 frames
Format settings, GOP : M=2, N=32
Muxing mode : Container profile=Unknown@3.1
Codec ID : V_MPEG4/ISO/AVC
Duration : 1h 41mn
Bit rate : 3 640 Kbps
Width : 960 pixels
Height : 718 pixels
Display aspect ratio : 16:9
Frame rate : 25.000 fps
Color space : YUV
Chroma subsampling : 4:2:0
Bit depth : 8 bits
Scan type : Progressive
Bits/(Pixel*Frame) : 0.211
Stream size : 2.57 GiB (89%)
Title : Marafon (2013) - Release for HDCLUB
Language : Russian
Color primaries : BT.709-5, BT.1361, IEC 61966-2-4, SMPTE RP177
Transfer characteristics : BT.709-5, BT.1361
Matrix coefficients : BT.709-5, BT.1361, IEC 61966-2-4 709, SMPTE RP177
Audio
ID : 2
Format : AC-3
Format/Info : Audio Coding 3
Mode extension : CM (complete main)
Codec ID : A_AC3
Duration : 1h 41mn
Bit rate mode : Constant
Bit rate : 384 Kbps
Channel(s) : 6 channels
Channel positions : Front: L C R, Side: L R, LFE
Sampling rate : 48.0 KHz
Bit depth : 16 bits
Stream size : 277 MiB (9%)
Title : AC3 5.1 @ 384 kbps
Language : Russian
Menu
00:00:00.000 : Глава 1
00:04:49.000 : Глава 2
00:13:29.000 : Глава 3
00:22:52.000 : Глава 4
00:31:23.000 : Глава 5
00:41:50.000 : Глава 6
00:50:16.000 : Глава 7
00:59:32.000 : Глава 8
01:09:27.000 : Глава 9
01:18:35.000 : Глава 10
01:28:58.000 : Глава 11
01:37:58.000 : Глава 12

Скриншот c названием фильма

Скриншоты

Скачать

Скачать торрент!

Как скачивать? · Что такое торрент? · Рейтинг и ограничения

Сайт не распространяет и не хранит электронные версии произведений, а лишь предоставляет доступ к создаваемому пользователями каталогу ссылок на торрент-файлы, которые содержат только списки хеш-сумм

[Профиль] [ЛС]
Показать сообщения:    
Ответить на тему

Текущее время: Сегодня 22:41

Часовой пояс: GMT + 4



Вы не можете начинать темы
Вы не можете отвечать на сообщения
Вы не можете редактировать свои сообщения
Вы не можете удалять свои сообщения
Вы не можете голосовать в опросах
Вы не можете прикреплять файлы к сообщениям
Вы не можете скачивать файлы