Затянувшаяся расплата / Zanjeer (Апурва Лакхия / Apoorva Lakhia) [2013, Индия, Боевик, криминал, DVDRip] MVO (ICG) + Rus Sub + Original

Ответить на тему
 
Автор Сообщение

user ®

Стаж: 12 лет

Сообщений: 15092

Пост Пост: #1 от 24-Ноя-2013 18:40

[Цитировать]

Затянувшаяся расплата / Zanjeer- Страна: Индия
Жанр: Боевик, криминал
Год выпуска: 2013
Продолжительность: 02:13:48-Язык: Хинди
Перевод: Любительский (многоголосый закадровый) - ICG
Cубтитры: Pусские (полные, песни) [перевод: Rummata]--Режиссер: Апурва Лакхия / Apoorva Lakhia-В ролях: Рам Чаран Теджа, Санджай Датт, Приянка Чопра, Пракаш Радж, Атул Кулкарни, Махи Гилл--Описание: Помощник комиссара полиции Виджай Кханна за 5 лет службы в полиции переводился на новое место 17 раз. Попав в Мумбаи, он принимается за расследование жестокого убийства на автозаправке, единственным свидетелем которого становится родившаяся в Америке индийская девушка, приехавшая в Индию на свадьбу подруги. С помощью криминального репортёра Джай Дева Виджай Кханна в ходе расследования выходит на нефтяную мафию, и ревностное выполнение служебных обязанностей столкнёт его с кошмарами из собственного далёкого прошлого.-- | Трейлер | Сэмпл--Качество видео: DVDRip
Формат видео: AVI-Видео: XviD, 720x304, 23.976 fps, 1639 kbps
Аудио #1: 48 kHz, АС3, 6 ch, 448 kbps [Rus]
Аудио: #2 48 kHz, АС3, 2 ch, 224 kbps [Hindi]
Формат субтитров: softsub (SRT)-Доп. информация:
  • о субтитрах: внешние: #полные, #песни
-Релиз по заказу (спасибо!)-Сэмпл / Sample-
-

Скриншот с названием


-

Скриншоты


-

MI

Общее
Полное имя : H:\[DVDRip]\[VO]\Zanjeer.2013.DVDRip.Rus.Original.ICG.GeneralFilm\Zanjeer.2013.DVDRip.Rus.Original.ICG.GeneralFilm.avi
Формат : AVI
Формат/Информация : Audio Video Interleave
Профиль формата : OpenDML
Размер файла : 2,18 Гбайт
Продолжительность : 2 ч. 13 м.
Общий поток : 2329 Кбит/сек
Программа кодирования : VirtualDubModRus 1.5.10.2 (build 2542/release)
Библиотека кодирования : VirtualDubMod build 2542/release
Видео
Идентификатор : 0
Формат : MPEG-4 Visual
Профиль формата : Advanced Simple@L5
Параметр BVOP формата : 1
Параметр QPel формата : Нет
Параметр GMC формата : Без точки перехода
Параметр матрицы формата : Выборочная
Идентификатор кодека : XVID
Идентификатор кодека/Подсказка : XviD
Продолжительность : 2 ч. 13 м.
Битрейт : 1639 Кбит/сек
Ширина : 720 пикселей
Высота : 304 пикселя
Соотношение сторон : 2,35:1
Частота кадров : 23,976 кадра/сек
Цветовое пространство : YUV
Субдискретизация насыщенности : 4:2:0
Битовая глубина : 8 бит
Тип развёртки : Прогрессивная
Метод сжатия : С потерями
Бит/(Пиксели*Кадры) : 0.312
Размер потока : 1,53 Гбайт (70%)
Библиотека кодирования : XviD 64
Аудио #1
Идентификатор : 1
Формат : AC-3
Формат/Информация : Audio Coding 3
Расширение режима : CM (complete main)
Параметр Endianness формата : Big
Идентификатор кодека : 2000
Продолжительность : 2 ч. 13 м.
Вид битрейта : Постоянный
Битрейт : 448 Кбит/сек
Каналы : 6 каналов
Расположение каналов : Front: L C R, Side: L R, LFE
Частота : 48,0 КГц
Битовая глубина : 16 бит
Метод сжатия : С потерями
Задержка видео : 21 мс.
Размер потока : 429 Мбайт (19%)
Выравнивание : Разделение по промежуткам
Продолжительность промежутка : 42 мс. (1,00 видеокадр)
Время предзагрузки промежутка : 500 мс.
Аудио #2
Идентификатор : 2
Формат : AC-3
Формат/Информация : Audio Coding 3
Расширение режима : CM (complete main)
Параметр Endianness формата : Big
Идентификатор кодека : 2000
Продолжительность : 2 ч. 13 м.
Вид битрейта : Постоянный
Битрейт : 224 Кбит/сек
Каналы : 2 канала
Расположение каналов : Front: L R
Частота : 48,0 КГц
Битовая глубина : 16 бит
Метод сжатия : С потерями
Размер потока : 214 Мбайт (10%)
Выравнивание : Соединение по промежуткам
Продолжительность промежутка : 42 мс. (1,00 видеокадр)
Время предзагрузки промежутка : 512 мс.
Скачать

Скачать торрент! Затянувшаяся расплата / Zanjeer (Апурва Лакхия / Apoorva Lakhia) [2013, Индия, Боевик, криминал, DVDRip] MVO (ICG) + Rus Sub + Original

Как скачивать? · Что такое торрент? · Рейтинг и ограничения

Сайт не распространяет и не хранит электронные версии произведений, а лишь предоставляет доступ к создаваемому пользователями каталогу ссылок на торрент-файлы, которые содержат только списки хеш-сумм

[Профиль] [ЛС]
Показать сообщения:    
Ответить на тему

Текущее время: Сегодня 16:10

Часовой пояс: GMT + 4



Вы не можете начинать темы
Вы не можете отвечать на сообщения
Вы не можете редактировать свои сообщения
Вы не можете удалять свои сообщения
Вы не можете голосовать в опросах
Вы не можете прикреплять файлы к сообщениям
Вы не можете скачивать файлы