Плоть + кровь / Flesh+Blood (Пол Верховен / Paul Verhoeven) [1985, Испания, США, Нидерланды, драма, приключения, исторический, BDRip 1080p] MVO (Н-Кино) + MVO + AVO (А. Гаврилов) + VO (А. Попов) + Sub Rus, Eng + Original Eng

Ответить на тему
 
Автор Сообщение

user ®

Стаж: 7 лет 7 месяцев

Сообщений: 20008

Пост Пост: #1 от 24-Ноя-2013 18:40

[Цитировать]

Плоть + кровь / Flesh+Blood
Страна: Испания, США, Нидерланды
Студия: Impala, Riverside Pictures
Жанр: драма, приключения, исторический
Год выпуска: 1985
Продолжительность: 02:07:50
Перевод: Профессиональный (многоголосый закадровый) Н-Кино
Перевод 2: Профессиональный (многоголосый закадровый)
Перевод 3: Авторский (одноголосый закадровый) А. Гаврилов
Перевод 4: Одноголосый закадровый А. Попов
Cубтитры: русские, английские
Оригинальная аудиодорожка: английский
Режиссер: Пол Верховен / Paul Verhoeven
В ролях: Рутгер Хауэр, Дженнифер Джейсон Ли, Том Бёрлинсон, Джек Томпсон, Фернандо Ильбек, Сьюзен Тиррел, Рональд Лейси, Брайон Джеймс, Джон Деннис Джонстон, Симон Андреу
Описание: 1501 год. Вся Европа охвачена кровопролитными войнами. В городах свирепствует чума. Отряд ландскнехтов, руководимый бывшим наемником Мартином, захватывает в заложники невесту сына барона Арнольфини, когда-то предавшего Мартина. "Солдаты удачи" укрываются в заброшенном после эпидемии чумы замке и вступают в неравную битву с армией барона...
"Верховен отобразил истинные "темные века" без хромированно-лакированной гламурности, там модной сейчас в Голливуде. Вокруг убийства, насилие, секс, грязь, но для героев данного фильма все эти вещи нормальны и обыденны - они не знают другой жизни. И режиссер показывает нам, что мир не изменился с тех пор, как и люди... Очень жесткий реалистичный фильм."

Доп. информация: Сохранена навигация по главам.
Сэмпл: http://multi-up.com/925456
Тип релиза: BDRip 1080p
Контейнер: MKV
Видео: AVC h264, 1920x816 (2.35:1), 23.976 fps, 13.8 Mbps
Аудио: AC3, 192 Kbps, 48.0 KHz, 2 ch MVO - Н-Кино
Аудио 2: AC3, 192 Kbps, 48.0 KHz, 2 ch MVO
Аудио 3: AC3, 192 Kbps, 48.0 KHz, 2 ch А.Гаврилов
Аудио 4: AC3, 192 Kbps, 48.0 KHz, 2 ch А.Попов
Формат субтитров: softsub (SRT)

MediaInfo

Общее
Уникальный идентификатор : 174147680604257605923213435182259637386 (0x83039F8F6AF6D2BABF5850A083D40C8A)
Полное имя : D:\Plot.I.Krov_1985.BDRip.1080p.mkv
Формат : Matroska
Версия формата : Version 4 / Version 2
Размер файла : 13,2 Гбайт
Продолжительность : 2 ч. 7 м.
Общий поток : 14,8 Мбит/сек
Дата кодирования : UTC 2013-09-14 15:57:58
Программа кодирования : mkvmerge v6.3.0 ('You can't stop me!') built on Jun 28 2013 20:09:41
Библиотека кодирования : libebml v1.3.0 + libmatroska v1.4.0
Видео
Идентификатор : 1
Формат : AVC
Формат/Информация : Advanced Video Codec
Профиль формата : High@L4.1
Параметр CABAC формата : Да
Параметр ReFrames формата : 5 кадров
Идентификатор кодека : V_MPEG4/ISO/AVC
Продолжительность : 2 ч. 7 м.
Битрейт : 13,8 Мбит/сек
Ширина : 1920 пикселей
Высота : 816 пикселей
Соотношение сторон : 2,35:1
Режим частоты кадров : Постоянный
Частота кадров : 23,976 кадра/сек
Цветовое пространство : YUV
Субдискретизация насыщенности : 4:2:0
Битовая глубина : 8 бит
Тип развёртки : Прогрессивная
Бит/(Пиксели*Кадры) : 0.367
Размер потока : 12,1 Гбайт (92%)
Библиотека кодирования : x264 core 138 r2358 9e941d1
Настройки программы : cabac=1 / ref=5 / deblock=1:-1:-1 / analyse=0x3:0x133 / me=umh / subme=10 / psy=1 / psy_rd=1.00:0.00 / mixed_ref=1 / me_range=32 / chroma_me=1 / trellis=2 / 8x8dct=1 / cqm=0 / deadzone=21,11 / fast_pskip=0 / chroma_qp_offset=-2 / threads=6 / lookahead_threads=1 / sliced_threads=0 / nr=0 / decimate=1 / interlaced=0 / bluray_compat=0 / constrained_intra=0 / bframes=9 / b_pyramid=2 / b_adapt=2 / b_bias=0 / direct=3 / weightb=1 / open_gop=0 / weightp=2 / keyint=240 / keyint_min=24 / scenecut=40 / intra_refresh=0 / rc_lookahead=120 / rc=2pass / mbtree=1 / bitrate=13798 / ratetol=2.0 / qcomp=0.70 / qpmin=0 / qpmax=51 / qpstep=4 / cplxblur=20.0 / qblur=0.5 / vbv_maxrate=50000 / vbv_bufsize=62500 / nal_hrd=none / ip_ratio=1.10 / aq=2:1.00
Язык : English
Default : Да
Forced : Нет
Основные цвета : BT.709
Характеристики трансфера : BT.709
Коэффициенты матрицы : BT.709
Аудио #1
Идентификатор : 2
Формат : AC-3
Формат/Информация : Audio Coding 3
Расширение режима : CM (complete main)
Параметр Endianness формата : Big
Идентификатор кодека : A_AC3
Продолжительность : 2 ч. 7 м.
Вид битрейта : Постоянный
Битрейт : 192 Кбит/сек
Каналы : 2 канала
Расположение каналов : Front: L R
Частота : 48,0 КГц
Битовая глубина : 16 бит
Метод сжатия : С потерями
Размер потока : 176 Мбайт (1%)
Заголовок : MVO - Н-Кино
Язык : Russian
Default : Да
Forced : Нет
Аудио #2
Идентификатор : 3
Формат : AC-3
Формат/Информация : Audio Coding 3
Расширение режима : CM (complete main)
Параметр Endianness формата : Big
Идентификатор кодека : A_AC3
Продолжительность : 2 ч. 7 м.
Вид битрейта : Постоянный
Битрейт : 192 Кбит/сек
Каналы : 2 канала
Расположение каналов : Front: L R
Частота : 48,0 КГц
Битовая глубина : 16 бит
Метод сжатия : С потерями
Размер потока : 176 Мбайт (1%)
Заголовок : MVO
Язык : Russian
Default : Нет
Forced : Нет
Аудио #3
Идентификатор : 4
Формат : AC-3
Формат/Информация : Audio Coding 3
Расширение режима : CM (complete main)
Параметр Endianness формата : Big
Идентификатор кодека : A_AC3
Продолжительность : 2 ч. 7 м.
Вид битрейта : Постоянный
Битрейт : 192 Кбит/сек
Каналы : 2 канала
Расположение каналов : Front: L R
Частота : 48,0 КГц
Битовая глубина : 16 бит
Метод сжатия : С потерями
Размер потока : 176 Мбайт (1%)
Заголовок : АVO - А.Гаврилов
Язык : Russian
Default : Нет
Forced : Нет
Аудио #4
Идентификатор : 5
Формат : AC-3
Формат/Информация : Audio Coding 3
Расширение режима : CM (complete main)
Параметр Endianness формата : Big
Идентификатор кодека : A_AC3
Продолжительность : 2 ч. 7 м.
Вид битрейта : Постоянный
Битрейт : 192 Кбит/сек
Каналы : 2 канала
Расположение каналов : Front: L R
Частота : 48,0 КГц
Битовая глубина : 16 бит
Метод сжатия : С потерями
Размер потока : 176 Мбайт (1%)
Заголовок : АVO - А.Попов
Язык : Russian
Default : Нет
Forced : Нет
Аудио #5
Идентификатор : 6
Формат : AC-3
Формат/Информация : Audio Coding 3
Расширение режима : CM (complete main)
Параметр Endianness формата : Big
Идентификатор кодека : A_AC3
Продолжительность : 2 ч. 7 м.
Вид битрейта : Постоянный
Битрейт : 192 Кбит/сек
Каналы : 2 канала
Расположение каналов : Front: L R
Частота : 48,0 КГц
Битовая глубина : 16 бит
Метод сжатия : С потерями
Размер потока : 176 Мбайт (1%)
Язык : English
Default : Нет
Forced : Нет
Текст #1
Идентификатор : 7
Формат : UTF-8
Идентификатор кодека : S_TEXT/UTF8
Идентификатор кодека/Информация : UTF-8 Plain Text
Заголовок : Full & HDTV
Язык : Russian
Default : Нет
Forced : Нет
Текст #2
Идентификатор : 8
Формат : UTF-8
Идентификатор кодека : S_TEXT/UTF8
Идентификатор кодека/Информация : UTF-8 Plain Text
Заголовок : Full
Язык : Russian
Default : Нет
Forced : Нет
Текст #3
Идентификатор : 9
Формат : UTF-8
Идентификатор кодека : S_TEXT/UTF8
Идентификатор кодека/Информация : UTF-8 Plain Text
Язык : English
Default : Нет
Forced : Нет
Меню
00:00:00.000 : en:00:00:00.000
00:11:02.453 : en:00:11:02.453
00:19:40.596 : en:00:19:40.596
00:25:41.373 : en:00:25:41.373
00:36:32.732 : en:00:36:32.732
00:42:38.473 : en:00:42:38.473
00:51:27.584 : en:00:51:27.584
00:54:59.379 : en:00:54:59.379
00:59:29.191 : en:00:59:29.191
01:09:17.320 : en:01:09:17.320
01:21:31.011 : en:01:21:31.011
01:28:53.828 : en:01:28:53.828
01:38:54.762 : en:01:38:54.762
01:48:13.153 : en:01:48:13.153
01:55:49.818 : en:01:55:49.818
02:03:41.623 : en:02:03:41.623

Скриншоты

Скачать

Скачать торрент!

Как скачивать? · Что такое торрент? · Рейтинг и ограничения

Сайт не распространяет и не хранит электронные версии произведений, а лишь предоставляет доступ к создаваемому пользователями каталогу ссылок на торрент-файлы, которые содержат только списки хеш-сумм

[Профиль] [ЛС]
Показать сообщения:    
Ответить на тему

Текущее время: Сегодня 18:21

Часовой пояс: GMT + 4



Вы не можете начинать темы
Вы не можете отвечать на сообщения
Вы не можете редактировать свои сообщения
Вы не можете удалять свои сообщения
Вы не можете голосовать в опросах
Вы не можете прикреплять файлы к сообщениям
Вы не можете скачивать файлы