Миллионы Брюстера / Brewster\'s Millions (Уолтер Хилл / Walter Hill) [1985, США, комедия, HDTVRip 720p] 2х MVO (Neoclassica, 1 канал) + 2х DVO (НТВ+, НТВ) + 3х AVO(Михалев, Гаврилов, Володарский) + Original Eng + Sub Rus

Ответить на тему
 
Автор Сообщение

user ®

Стаж: 8 лет 2 месяца

Сообщений: 20008

Пост Пост: #1 от 24-Ноя-2013 18:40

[Цитировать]

Миллионы Брюстера / Brewster's Millions «Искусство безрассудных трат»
Страна: США
Жанр: комедия
Год выпуска: 1985
Продолжительность: 01:36:56
-Перевод:
  • Профессиональный (многоголосый закадровый) Neoclassica
  • Профессиональный (двухголосый закадровый) НТВ+
  • Профессиональный (многоголосый закадровый) 1 канал
  • Профессиональный (двухголосый закадровый) Селена Интернешнл (НТВ)
  • Авторский (одноголосый закадровый) Михалев
  • Авторский (одноголосый закадровый) Гаврилов
  • Авторский (одноголосый закадровый) Володарский
Оригинальная дорожка: английский
Субтитры: русские (полные)-Режиссер: Уолтер Хилл / Walter Hill
В ролях: Ричард Прайор (Montgomery Brewster), Джон Кэнди (Spike Nolan), Лонетт МакКи (Angela Drake), Стивен Коллинз (Warren Cox), Джерри Орбак (Charley Pegler), Пэт Хингл (Edward Roundfield), Това Фелдшух (Marilyn), Хьюм Кронин (Rupert Horn), Джо Грифази (J.B. Donaldo), Питер Джейсон (Chuck Fleming), Дэвид Уайт (George Granville), Джером Демпси (Norris Baxter)-Описание: Сюжет фильма строится на том, что игрок бейсбольной команды получает от скончавшегося эксцентричного родственника (белого миллионера) наследство в сотни миллионов долларов.
Однако не все так просто. В завещании есть коварный пункт. Вредный старикан указал в записанном на кинопленку завещании, что полностью сумму наследник получит лишь в том случае, если за месяц сможет потратить 30 млн долларов до последнего цента.

MPAA: PG - Рекомендуется присутствие родителей
СЭМПЛ: http://yadi.sk/d/cS7GdeeEDAnAz (31 Мб, 1м 1с)
Качество видео: HDTVRip 720p
Формат: MKV
Видео кодек: H.264
Аудио кодек: AC3, MP3
Видео: 1280x696 (16:9), x264~4500 kbps, 25 fps, 0,202 bit/pixel
Аудио 1: AC3 2.0 channels, 48.0 KHz ~192 Kbps Профессиональный (многоголосый закадровый) Neoclassica
Аудио 2: AC3 2.0 channels, 48.0 KHz ~192 Kbps Профессиональный (двухголосый закадровый) НТВ+
Аудио 3: MP3 2.0 channels, 48.0 KHz ~128 Kbps Профессиональный (многоголосый закадровый) 1 канал
Аудио 4: MP3 2.0 channels, 48.0 KHz ~128 Kbps Профессиональный (двухголосый закадровый) Селена Интернешнл (НТВ)
Аудио 5: AC3 2.0 channels, 48.0 KHz ~192 Kbps Авторский (одноголосый закадровый) Михалев
Аудио 6: AC3 2.0 channels, 48.0 KHz ~192 Kbps Авторский (одноголосый закадровый) Гаврилов
Аудио 7: AC3 2.0 channels, 48.0 KHz ~224 Kbps Авторский (одноголосый закадровый) Володарский
Аудио 8: AC3 2.0 channels, 48.0 KHz ~384 Kbps оригинальный (английский)

Media Info

General
Unique ID                                : 205784834224629245719278953910981923517 (0x9AD0B7A9B71412C68E3578C7EAC492BD)
Complete name                            : I:\Фильмы\Комедии\Brewster's Millions_HDTVRip 720p (1985).mkv
Format                                   : Matroska
Format version                           : Version 4 / Version 2
File size                                : 4.15 GiB
Duration                                 : 1h 36mn
Overall bit rate                         : 6 135 Kbps
Encoded date                             : UTC 2013-11-23 09:29:08
Writing application                      : mkvmerge v6.1.0 ('Old Devil') built on Mar  4 2013 09:10:42
Writing library                          : libebml v1.3.0 + libmatroska v1.4.0
Video
ID                                       : 1
Format                                   : AVC
Format/Info                              : Advanced Video Codec
Format profile                           : High@L4.1
Format settings, CABAC                   : Yes
Format settings, ReFrames                : 9 frames
Codec ID                                 : V_MPEG4/ISO/AVC
Duration                                 : 1h 36mn
Bit rate                                 : 4 500 Kbps
Width                                    : 1 280 pixels
Height                                   : 696 pixels
Display aspect ratio                     : 16:9
Frame rate                               : 25.000 fps
Color space                              : YUV
Chroma subsampling                       : 4:2:0
Bit depth                                : 8 bits
Scan type                                : Progressive
Bits/(Pixel*Frame)                       : 0.202
Stream size                              : 2.97 GiB (71%)
Title                                    : Brewster's Millions (1985) HDTVRip 720p
Writing library                          : x264 core 130 r2273 b3065e6
Encoding settings                        : cabac=1 / ref=9 / deblock=1:-1:1 / analyse=0x3:0x133 / me=umh / subme=10 / psy=1 / psy_rd=1.00:0.10 / mixed_ref=1 / me_range=32 / chroma_me=1 / trellis=2 / 8x8dct=1 / cqm=0 / deadzone=21,11 / fast_pskip=0 / chroma_qp_offset=-3 / threads=12 / lookahead_threads=3 / sliced_threads=0 / nr=0 / decimate=1 / interlaced=0 / bluray_compat=0 / constrained_intra=0 / bframes=12 / b_pyramid=2 / b_adapt=2 / b_bias=0 / direct=3 / weightb=1 / open_gop=0 / weightp=2 / keyint=250 / keyint_min=25 / scenecut=40 / intra_refresh=0 / rc_lookahead=50 / rc=2pass / mbtree=1 / bitrate=4500 / ratetol=1.0 / qcomp=0.60 / qpmin=0 / qpmax=69 / qpstep=4 / cplxblur=20.0 / qblur=0.5 / ip_ratio=1.40 / aq=1:1.00
Language                                 : English
Default                                  : Yes
Forced                                   : No
Audio #1
ID                                       : 2
Format                                   : AC-3
Format/Info                              : Audio Coding 3
Mode extension                           : CM (complete main)
Codec ID                                 : A_AC3
Duration                                 : 1h 36mn
Bit rate mode                            : Constant
Bit rate                                 : 192 Kbps
Channel(s)                               : 2 channels
Channel positions                        : Front: L R
Sampling rate                            : 48.0 KHz
Bit depth                                : 16 bits
Compression mode                         : Lossy
Stream size                              : 133 MiB (3%)
Title                                    : MVO Neoclassica AC3 2.0 192 kbps
Language                                 : Russian
Default                                  : Yes
Forced                                   : No
Audio #2
ID                                       : 3
Format                                   : AC-3
Format/Info                              : Audio Coding 3
Mode extension                           : CM (complete main)
Codec ID                                 : A_AC3
Duration                                 : 1h 36mn
Bit rate mode                            : Constant
Bit rate                                 : 192 Kbps
Channel(s)                               : 2 channels
Channel positions                        : Front: L R
Sampling rate                            : 48.0 KHz
Bit depth                                : 16 bits
Compression mode                         : Lossy
Stream size                              : 133 MiB (3%)
Title                                    : DVO НТВ+ AC3 2.0 192 kbps
Language                                 : Russian
Default                                  : No
Forced                                   : No
Audio #3
ID                                       : 4
Format                                   : MPEG Audio
Format version                           : Version 1
Format profile                           : Layer 3
Mode                                     : Joint stereo
Mode extension                           : MS Stereo
Codec ID                                 : A_MPEG/L3
Codec ID/Hint                            : MP3
Duration                                 : 1h 36mn
Bit rate mode                            : Constant
Bit rate                                 : 128 Kbps
Channel(s)                               : 2 channels
Sampling rate                            : 48.0 KHz
Compression mode                         : Lossy
Stream size                              : 88.8 MiB (2%)
Title                                    : MVO 1 канал MP3 2.0 128 kbps
Language                                 : Russian
Default                                  : No
Forced                                   : No
Audio #4
ID                                       : 5
Format                                   : MPEG Audio
Format version                           : Version 1
Format profile                           : Layer 3
Codec ID                                 : A_MPEG/L3
Codec ID/Hint                            : MP3
Duration                                 : 1h 36mn
Bit rate mode                            : Constant
Bit rate                                 : 128 Kbps
Channel(s)                               : 2 channels
Sampling rate                            : 48.0 KHz
Compression mode                         : Lossy
Stream size                              : 88.8 MiB (2%)
Title                                    : DVO Селена Интернешнл (НТВ) MP3 2.0 128 kbps
Language                                 : Russian
Default                                  : No
Forced                                   : No
Audio #5
ID                                       : 6
Format                                   : AC-3
Format/Info                              : Audio Coding 3
Mode extension                           : CM (complete main)
Codec ID                                 : A_AC3
Duration                                 : 1h 36mn
Bit rate mode                            : Constant
Bit rate                                 : 192 Kbps
Channel(s)                               : 2 channels
Channel positions                        : Front: L R
Sampling rate                            : 48.0 KHz
Bit depth                                : 16 bits
Compression mode                         : Lossy
Stream size                              : 133 MiB (3%)
Title                                    : AVO Михалев AC3 2.0 192 kbps
Language                                 : Russian
Default                                  : No
Forced                                   : No
Audio #6
ID                                       : 7
Format                                   : AC-3
Format/Info                              : Audio Coding 3
Mode extension                           : CM (complete main)
Codec ID                                 : A_AC3
Duration                                 : 1h 36mn
Bit rate mode                            : Constant
Bit rate                                 : 192 Kbps
Channel(s)                               : 2 channels
Channel positions                        : Front: L R
Sampling rate                            : 48.0 KHz
Bit depth                                : 16 bits
Compression mode                         : Lossy
Stream size                              : 133 MiB (3%)
Title                                    : AVO Гаврилов AC3 2.0 192 kbps
Language                                 : Russian
Default                                  : No
Forced                                   : No
Audio #7
ID                                       : 8
Format                                   : AC-3
Format/Info                              : Audio Coding 3
Mode extension                           : CM (complete main)
Codec ID                                 : A_AC3
Duration                                 : 1h 36mn
Bit rate mode                            : Constant
Bit rate                                 : 224 Kbps
Channel(s)                               : 2 channels
Channel positions                        : Front: L R
Sampling rate                            : 48.0 KHz
Bit depth                                : 16 bits
Compression mode                         : Lossy
Stream size                              : 155 MiB (4%)
Title                                    : AVO Володарский AC3 2.0 224 kbps
Language                                 : Russian
Default                                  : No
Forced                                   : No
Audio #8
ID                                       : 9
Format                                   : AC-3
Format/Info                              : Audio Coding 3
Format profile                           : Dolby Digital
Mode extension                           : CM (complete main)
Codec ID                                 : A_AC3
Duration                                 : 1h 36mn
Bit rate mode                            : Constant
Bit rate                                 : 384 Kbps
Channel(s)                               : 2 channels
Channel positions                        : Front: L R
Sampling rate                            : 48.0 KHz
Bit depth                                : 16 bits
Compression mode                         : Lossy
Stream size                              : 266 MiB (6%)
Title                                    : Original AC3 5.1 384 kbps
Language                                 : English
Default                                  : No
Forced                                   : No
Text
ID                                       : 10
Format                                   : UTF-8
Codec ID                                 : S_TEXT/UTF8
Codec ID/Info                            : UTF-8 Plain Text
Title                                    : Rissan Subs (full)
Language                                 : Russian
Default                                  : Yes
Forced                                   : No

x264 log

x264.exe: --pass 2 --bitrate 4500 --preset medium --level 4.1 --ref 9 --deblock -1:1 --merange 32 --bframes 12 --direct auto --b-adapt 2 --trellis 2 --no-fast-pskip --psy-rd 1.00:0.10 --partitions all --subme 11 --me umh --rc-lookahead 50 --sar 1:1 --stats "D:\Brewster's Millions.track_4113.log" --output NUL "E:\Temp\0053.avs"
avs [info]: 1280x696p 1:1 @ 25/1 fps (cfr)
x264 [info]: using SAR=1/1
x264 [info]: using cpu capabilities: MMX2 SSE2Fast SSSE3 SSE4.2 AVX
x264 [info]: profile High, level 4.1
x264 [info]: frame I:934   Avg QP:17.49  size:113998
x264 [info]: frame P:33532 Avg QP:19.98  size: 39320
x264 [info]: frame B:110946 Avg QP:22.16  size: 16644
x264 [info]: consecutive B-frames:  1.3%  3.5%  4.6% 40.3% 32.7%  5.3%  5.4%  3.7%  2.6%  0.3%  0.1%  0.0%  0.1%
x264 [info]: mb I  I16..4:  3.3% 84.8% 11.9%
x264 [info]: mb P  I16..4:  1.0% 12.8%  1.3%  P16..4: 35.2% 38.0%  9.4%  1.0%  0.1%    skip: 1.3%
x264 [info]: mb B  I16..4:  0.1%  3.1%  0.1%  B16..8: 39.0% 18.8%  2.4%  direct: 8.1%  skip:28.4%  L0:43.8% L1:47.4% BI: 8.7%
x264 [info]: 8x8 transform intra:88.5% inter:70.2%
x264 [info]: direct mvs  spatial:99.8% temporal:0.2%
x264 [info]: coded y,uvDC,uvAC intra: 92.6% 73.0% 29.8% inter: 33.9% 24.1% 1.0%
x264 [info]: i16 v,h,dc,p: 22% 16%  5% 58%
x264 [info]: i8 v,h,dc,ddl,ddr,vr,hd,vl,hu: 11%  6%  4% 11% 15% 15% 13% 13% 12%
x264 [info]: i4 v,h,dc,ddl,ddr,vr,hd,vl,hu: 15%  7%  2%  8% 14% 16% 13% 13% 11%
x264 [info]: i8c dc,h,v,p: 29% 27% 24% 21%
x264 [info]: Weighted P-Frames: Y:4.4% UV:1.1%
x264 [info]: ref P L0: 48.1% 10.4% 15.4%  7.3%  5.0%  4.8%  3.6%  2.8%  2.3%  0.2%  0.0%
x264 [info]: ref B L0: 81.8%  9.0%  3.9%  1.8%  1.5%  1.1%  0.7%  0.3%
x264 [info]: ref B L1: 93.4%  6.6%
x264 [info]: kb/s:4499.69
x264 [total]: encoded 145412 frames, 8.12 fps, 4499.69 kb/s
final ratefactor: 17.78
Скачать

Скачать торрент!

Как скачивать? · Что такое торрент? · Рейтинг и ограничения

Сайт не распространяет и не хранит электронные версии произведений, а лишь предоставляет доступ к создаваемому пользователями каталогу ссылок на торрент-файлы, которые содержат только списки хеш-сумм

[Профиль] [ЛС]
Показать сообщения:    
Ответить на тему

Текущее время: Сегодня 18:20

Часовой пояс: GMT + 4



Вы не можете начинать темы
Вы не можете отвечать на сообщения
Вы не можете редактировать свои сообщения
Вы не можете удалять свои сообщения
Вы не можете голосовать в опросах
Вы не можете прикреплять файлы к сообщениям
Вы не можете скачивать файлы