Возврат / Сдача / Вернуть наличкой / Cashback (Шон Эллис / Sean Ellis) [2006, Великобритания, мелодрама, комедия, эротика, BDRip 720p] DVO (Инис) + AVO (Алексеев) + Sub (Rus, Eng) + Original (Eng)

Ответить на тему
 
Автор Сообщение

user ®

Стаж: 7 лет 7 месяцев

Сообщений: 20008

Пост Пост: #1 от 24-Ноя-2013 15:30

[Цитировать]

Возврат / Сдача / Вернуть наличкой / Cashback Страна: Великобритания
Студия: Left Turn Films, Lipsync Productions, Ugly Duckling Films
Жанр: мелодрама, комедия, эротика
Год выпуска: 2006
Продолжительность: 01:42:03
Перевод 1: Профессиональный (двухголосый закадровый) Студия Инис
Перевод 2: Авторский (одноголосый закадровый) Антон Алексеев
Cубтитры: русские, английские (+SDH)
Оригинальная аудиодорожка: английский
Режиссер: Шон Эллис / Sean Ellis
В ролях: Шон Биггерстаф, Эмилия Фокс, Стюарт Гудвин, Майкл Лэмбурн, Майкл Диксон, Мишель Райан, Эрика Эллис, Джей Бауэн, Шон Эванс, Кеннет Фахи
Описание: Переживая болезненное расставание с любимой, Бен впадает в бессонницу. В освободившиеся 8 часов он начинает работать в ночную смену местного супермаркета, где главной задачей обслуживающего персонала является «времяубийство». Неожиданно Бен обнаруживает в себе необычную способность останавливать время, что даёт толчок его художественному таланту.
Сэмпл: Скачать
Тип релиза: BDRip 720p (CtrlHD)
Контейнер: MKV
Видео: MPEG-4 AVC / 1280x544 / 7615 kbps / 23.976 fps / 16:9 / High Profile 4.1
Аудио 1: Русский, AC3 / 5.1 / 48 kHz / 448 kbps (DVO INIS)
Аудио 2: Русский, AC3 / 5.1 / 48 kHz / 448 kbps / DN -4dB (А. Алексеев)
Аудио 3: Английский, DTS / 5.1 / 48 kHz / 1536 kbps (Original)
Формат субтитров: подключаемые (SRT)
Навигация по главам: есть

MediaInfo

General
Unique ID : 183621463234381255299160807080383035614 (0x8A24351B4802BCB08883D4CDB7C538DE)
Complete name : D:\Cashback.2006.720p.BluRay.2xRus.Eng.x264-CtrlHD.mkv
Format : Matroska
Format version : Version 2
File size : 7.14 GiB
Duration : 1h 42mn
Overall bit rate : 10.0 Mbps
Encoded date : UTC 2013-11-23 05:44:31
Writing application : mkvmerge v5.8.0 ('No Sleep / Pillow') built on Sep 2 2012 15:37:04
Writing library : libebml v1.2.3 + libmatroska v1.3.0
Video
ID : 1
Format : AVC
Format/Info : Advanced Video Codec
Format profile : High@L4.1
Format settings, CABAC : Yes
Format settings, ReFrames : 12 frames
Codec ID : V_MPEG4/ISO/AVC
Bit rate : 7 630 Kbps
Width : 1 280 pixels
Height : 544 pixels
Display aspect ratio : 2.35:1
Frame rate mode : Variable
Original frame rate : 23.976 fps
Color space : YUV
Chroma subsampling : 4:2:0
Bit depth : 8 bits
Scan type : Progressive
Bits/(Pixel*Frame) : 0.457
Title : Cashback (2006)
Writing library : x264 core 138 r2358kMod 9e941d1
Encoding settings : cabac=1 / ref=12 / deblock=1:-3:-3 / analyse=0x3:0x113 / me=esa / subme=10 / psy=1 / fade_compensate=0.00 / psy_rd=1.05:0.00 / mixed_ref=1 / me_range=16 / chroma_me=1 / trellis=2 / 8x8dct=1 / cqm=0 / deadzone=21,11 / fast_pskip=0 / chroma_qp_offset=-2 / threads=6 / lookahead_threads=1 / sliced_threads=0 / nr=0 / decimate=0 / interlaced=0 / bluray_compat=0 / constrained_intra=0 / bframes=8 / b_pyramid=2 / b_adapt=2 / b_bias=0 / direct=3 / weightb=1 / open_gop=0 / weightp=2 / keyint=250 / keyint_min=23 / scenecut=40 / intra_refresh=0 / rc_lookahead=80 / rc=2pass / mbtree=0 / bitrate=7630 / ratetol=1.0 / qcomp=0.70 / qpmin=0 / qpmax=69 / qpstep=4 / cplxblur=20.0 / qblur=0.5 / vbv_maxrate=20000 / vbv_bufsize=15000 / nal_hrd=none / ip_ratio=1.30 / pb_ratio=1.10 / aq=1:1.00
Language : English
Default : Yes
Forced : No
Audio #1
ID : 2
Format : AC-3
Format/Info : Audio Coding 3
Mode extension : CM (complete main)
Format settings, Endianness : Big
Codec ID : A_AC3
Duration : 1h 42mn
Bit rate mode : Constant
Bit rate : 448 Kbps
Channel(s) : 6 channels
Channel positions : Front: L C R, Side: L R, LFE
Sampling rate : 48.0 KHz
Bit depth : 16 bits
Compression mode : Lossy
Stream size : 327 MiB (4%)
Title : DVO, Studio Inis
Language : Russian
Default : Yes
Forced : No
Audio #2
ID : 3
Format : AC-3
Format/Info : Audio Coding 3
Mode extension : CM (complete main)
Format settings, Endianness : Big
Codec ID : A_AC3
Duration : 1h 42mn
Bit rate mode : Constant
Bit rate : 448 Kbps
Channel(s) : 6 channels
Channel positions : Front: L C R, Side: L R, LFE
Sampling rate : 48.0 KHz
Bit depth : 16 bits
Compression mode : Lossy
Stream size : 327 MiB (4%)
Title : AVO, A.Alexeev
Language : Russian
Default : No
Forced : No
Audio #3
ID : 4
Format : DTS
Format/Info : Digital Theater Systems
Codec ID : A_DTS
Duration : 1h 42mn
Bit rate mode : Constant
Bit rate : 1 510 Kbps
Channel(s) : 6 channels
Channel positions : Front: L C R, Side: L R, LFE
Sampling rate : 48.0 KHz
Bit depth : 24 bits
Compression mode : Lossy
Stream size : 1.08 GiB (15%)
Title : Original
Language : English
Default : No
Forced : No
Text #1
ID : 5
Format : UTF-8
Codec ID : S_TEXT/UTF8
Codec ID/Info : UTF-8 Plain Text
Title : Russian
Language : Russian
Default : No
Forced : No
Text #2
ID : 6
Format : UTF-8
Codec ID : S_TEXT/UTF8
Codec ID/Info : UTF-8 Plain Text
Title : English
Language : English
Default : No
Forced : No
Text #3
ID : 7
Format : UTF-8
Codec ID : S_TEXT/UTF8
Codec ID/Info : UTF-8 Plain Text
Title : English-SDH
Language : English
Default : No
Forced : No
Menu
00:00:00.000 : en:Chapter 1
00:01:20.747 : en:Chapter 2
00:04:24.639 : en:Chapter 3
00:10:39.973 : en:Chapter 4
00:13:39.152 : en:Chapter 5
00:16:52.678 : en:Chapter 6
00:21:46.305 : en:Chapter 7
00:25:01.500 : en:Chapter 8
00:29:24.763 : en:Chapter 9
00:32:43.503 : en:Chapter 10
00:34:31.236 : en:Chapter 11
00:40:06.362 : en:Chapter 12
00:44:31.419 : en:Chapter 13
00:47:32.308 : en:Chapter 14
00:55:26.823 : en:Chapter 15
00:58:53.780 : en:Chapter 16
01:03:36.229 : en:Chapter 17
01:11:02.467 : en:Chapter 18
01:13:21.355 : en:Chapter 19
01:17:19.802 : en:Chapter 20
01:21:34.973 : en:Chapter 21
01:28:49.908 : en:Chapter 22
01:30:38.683 : en:Chapter 23
01:35:57.752 : en:Chapter 24

Скриншоты


Скриншоты сравнения с HDTV 720p

[url=http://***/forum/viewtopic.php?t=475358]http://***/forum/viewtopic.php?t=475358[/url]
HDTV 720p vs BDRip 720p





Дополнительно

Видеоряд от CtrlHD

.GENERAL iNFORMATiON
RUNTiME.......: 1h:42m:03s
SiZE..........: 6.5GB
ViDEO.CODEC...: x264, 2pass, L4.1
FRAMERATE.....: 23.976fps
BiTRATE.......: 7615Kbps
RESOLUTiON....: 1280x544
AUDiO.........: English DTS 5.1 @ 1510Kbps
SUBTiTLES.....: English, English-SDH
SUBS.FORMAT...: UTF-8 srt
CHAPTERS......: Numbered like on Blu-ray
SOURCE........: Cashback 2006 1080p JPN Blu-ray AVC DTS-HD MA 5.1-insinuendo
iMDB.RATiNG...: 7.2/10 (56,140 votes)
iMDB.LiNK.....: http://www.imdb.com/title/tt0460740/
.POST iNFORMATiON
ENCODER.......: 9mm
RELEASE.DATE..: 2013-11-17
.LOG
x264 [info]: frame I:1128 Avg QP:15.44 size:119535
x264 [info]: frame P:30367 Avg QP:17.28 size: 57433
x264 [info]: frame B:115321 Avg QP:17.31 size: 34242
x264 [info]: consecutive B-frames: 1.5% 2.0% 5.4% 22.2% 17.3% 38.3% 6.0% 4.3% 3.0%
x264 [info]: encoded 146816 frames, 4.07 fps, 7613.59 kb/s, duration 10:01:30.99
Авторскую аудиодорожку А. Алексеева предоставил [url=http://***/forum/profile.php?mode=viewprofile&u=9372409]budulai-8[/url] в [url=http://***/forum/viewtopic.php?t=1517264]теме переводчика[/url], за что ему спасибо.
Скачать

Скачать торрент!

Как скачивать? · Что такое торрент? · Рейтинг и ограничения

Сайт не распространяет и не хранит электронные версии произведений, а лишь предоставляет доступ к создаваемому пользователями каталогу ссылок на торрент-файлы, которые содержат только списки хеш-сумм

[Профиль] [ЛС]
Показать сообщения:    
Ответить на тему

Текущее время: Сегодня 12:54

Часовой пояс: GMT + 4



Вы не можете начинать темы
Вы не можете отвечать на сообщения
Вы не можете редактировать свои сообщения
Вы не можете удалять свои сообщения
Вы не можете голосовать в опросах
Вы не можете прикреплять файлы к сообщениям
Вы не можете скачивать файлы