Холодные глаза / Слежка / Cold Eyes (Чо Ый Сок / Jo Eui-seok, Ким Бён Со / Kim Byeong-seo) [2013, Корея Южная, триллер, HDRip] DVO (DeadSno & den904)

Ответить на тему
 
Автор Сообщение

user ®

Стаж: 13 лет

Сообщений: 15071

Пост Пост: #1 от 24-Ноя-2013 12:20

[Цитировать]

Холодные глаза / Слежка / Cold Eyes
Страна: Корея Южная
Жанр: триллер
Год выпуска: 2013
Продолжительность: 01:59:01
Перевод: Любительский (двухголосый закадровый) [DeadSno & den904]
Cубтитры: нет
Оригинальная аудиодорожка: нет
Режиссер: Чо Ый Сок / Jo Eui-seok, Ким Бён Со / Kim Byeong-seo
В ролях: Хан Хен Чжу, Соль Гён Гу, Чон У Сон, Ли Чун Хо
Описание: Команда специалистов по наблюдению, входящая в состав специального подразделения полиции, получает задание, с которым никто кроме них не может справиться. Им предстоит выследить виновных в совершении ряда дерзких банковских ограблений. Используя самую современную технику и незаурядные аналитические данные, группа выходит на след преступников. Но оказывается, что здесь замешана влиятельная организация, и обезвредить её будет совсем не просто...

Сэмпл: http://multi-up.com/926189
Качество видео: HDRip (Исходник BDRip720p)
Формат видео: AVI
Видео: 688x288 (2.39:1), 24.000 fps, XviD build 50 ~1547 kbps avg, 0.33 bit/pixel
Аудио: 48 kHz, AC3 Dolby Digital, 2/0 (L,R) ch, ~192.00 kbps avg

MediaInfo

Общее
Полное имя : S:\Фильмы\Холодные глаза (Слежка). 2013. HDRip.avi
Формат : AVI
Формат/Информация : Audio Video Interleave
Размер файла : 1,45 Гбайт
Продолжительность : 1 ч. 59 м.
Общий поток : 1749 Кбит/сек
Программа кодирования : VirtualDubMod 1.5.10.3 | www.virtualdub-fr.org || (build 2550/release)
Библиотека кодирования : VirtualDubMod build 2550/release
Видео
Идентификатор : 0
Формат : MPEG-4 Visual
Профиль формата : Advanced Simple@L5
Параметр BVOP формата : 2
Параметр QPel формата : Нет
Параметр GMC формата : Без точки перехода
Параметр матрицы формата : Выборочная
Идентификатор кодека : XVID
Идентификатор кодека/Подсказка : XviD
Продолжительность : 1 ч. 59 м.
Битрейт : 1547 Кбит/сек
Ширина : 688 пикс.
Высота : 288 пикс.
Соотношение сторон : 2,40:1
Частота кадров : 24,000 кадр/сек
Цветовое пространство : YUV
Подвыборка цветности : 4:2:0
Битовая глубина : 8 бит
Тип развёртки : Прогрессивная
Метод сжатия : С потерями
Бит/(Пиксели*Кадры) : 0.325
Размер потока : 1,29 Гбайт (88%)
Библиотека кодирования : XviD 1.2.1 (UTC 2008-12-04)
Аудио
Идентификатор : 1
Формат : AC-3
Формат/Информация : Audio Coding 3
Расширение режима : CM (complete main)
Идентификатор кодека : 2000
Продолжительность : 1 ч. 59 м.
Вид битрейта : Постоянный
Битрейт : 192 Кбит/сек
Каналы : 2 канала
Расположение каналов : Front: L R
Частота : 48,0 КГц
Битовая глубина : 16 бит
Метод сжатия : С потерями
Размер потока : 163 Мбайт (11%)
Выравнивание : Разделение по промежуткам
Продолжительность промежутка : 42 мс. (1,00 видеокадр)
Время предзагрузки промежутка : 500 ms

Скриншот c названием фильма

Скриншоты

Скачать

Скачать торрент! Холодные глаза / Слежка / Cold Eyes (Чо Ый Сок / Jo Eui-seok, Ким Бён Со / Kim Byeong-seo) [2013, Корея Южная, триллер, HDRip] DVO (DeadSno & den904)

Как скачивать? · Что такое торрент? · Рейтинг и ограничения

Сайт не распространяет и не хранит электронные версии произведений, а лишь предоставляет доступ к создаваемому пользователями каталогу ссылок на торрент-файлы, которые содержат только списки хеш-сумм

[Профиль] [ЛС]
Показать сообщения:    
Ответить на тему

Текущее время: Сегодня 18:08

Часовой пояс: GMT + 4



Вы не можете начинать темы
Вы не можете отвечать на сообщения
Вы не можете редактировать свои сообщения
Вы не можете удалять свои сообщения
Вы не можете голосовать в опросах
Вы не можете прикреплять файлы к сообщениям
Вы не можете скачивать файлы