Астрал: Глава 2 / Insidious: Chapter 2 (Джеймс Ван / James Wan) [2013, США, ужасы, триллер, CamRip] dub

Ответить на тему
 
Автор Сообщение

user ®

Стаж: 7 лет 7 месяцев

Сообщений: 20008

Пост Пост: #1 от 24-Ноя-2013 12:20

[Цитировать]

Астрал: Глава 2 / Insidious: Chapter 2
Страна: США
Жанр: ужасы, триллер
Год выпуска: 2013
Продолжительность: 01:40:56
Перевод: Профессиональный (дублированный) [звук из кинотеатра]
Cубтитры: нет
Оригинальная аудиодорожка: нет
Режиссер: Джеймс Ван / James Wan
В ролях: Патрик Уилсон (Patrick Wilson), Роуз Бирн (Rose Byrne), Барбара Херши (Barbara Hershey), Стив Култер (Steve Coulter), Тай Симпкинс (Ty Simpkins), Ли Уоннелл (Leigh Whannell), Энгус Сэмпсон (Angus Sampson), Лин Шэй (Lin Shaye)
Описание: Семья Ламберт стремится раскрыть тайну, из-за которой они оказались в опасной связи с миром духов…
Доп. информация:
Сэмпл: http://multi-up.com/926125
Качество видео: CamRip
Формат видео: AVI
Видео: 720x336 (2.2:1), 29.970 fps, XviD, 1 795 Kbps
Аудио: MP3, 128 Kbps, 48.0 KHz, 2 ch

MediaInfo

General
Complete name : Астрал 2. 2013. L1.CAMRip.1400MB. СПАМ
Format : AVI
Format/Info : Audio Video Interleave
File size : 1.36 GiB
Duration : 1h 40mn
Overall bit rate : 1 934 Kbps
Movie name : Astral.2.2013.L1.CAMRip.1400MB. СПАМ
Director : СПАМ
Writing application : VirtualDubMod 1.5.10.2 (build 2540/release)
Copyright : http://www. СПАМ
Video
ID : 0
Format : MPEG-4 Visual
Format profile : Advanced Simple@L5
Format settings, BVOP : Yes
Format settings, QPel : No
Format settings, GMC : No warppoints
Format settings, Matrix : Custom
Codec ID : XVID
Codec ID/Hint : XviD
Duration : 1h 40mn
Bit rate : 1 795 Kbps
Width : 720 pixels
Height : 336 pixels
Display aspect ratio : 2.2:1
Frame rate : 29.970 fps
Color space : YUV
Chroma subsampling : 4:2:0
Bit depth : 8 bits
Scan type : Progressive
Bits/(Pixel*Frame) : 0.248
Stream size : 1.27 GiB (93%)
Writing library : XviD 1.2.1 (UTC 2008-12-04)
Audio
ID : 1
Format : MPEG Audio
Format version : Version 1
Format profile : Layer 3
Mode : Joint stereo
Mode extension : MS Stereo
Codec ID : 55
Codec ID/Hint : MP3
Duration : 1h 40mn
Bit rate mode : Constant
Bit rate : 128 Kbps
Channel(s) : 2 channels
Sampling rate : 48.0 KHz
Stream size : 92.4 MiB (7%)
Alignment : Aligned on interleaves
Interleave, duration : 33 ms (1.00 video frame)
Interleave, preload duration : 504 ms

Скриншот c названием фильма

Скриншоты



Скачать

Скачать торрент!

Как скачивать? · Что такое торрент? · Рейтинг и ограничения

Сайт не распространяет и не хранит электронные версии произведений, а лишь предоставляет доступ к создаваемому пользователями каталогу ссылок на торрент-файлы, которые содержат только списки хеш-сумм

[Профиль] [ЛС]
Показать сообщения:    
Ответить на тему

Текущее время: Сегодня 15:53

Часовой пояс: GMT + 4



Вы не можете начинать темы
Вы не можете отвечать на сообщения
Вы не можете редактировать свои сообщения
Вы не можете удалять свои сообщения
Вы не можете голосовать в опросах
Вы не можете прикреплять файлы к сообщениям
Вы не можете скачивать файлы