В поисках радости / Finding Joy (Карло Де Роза / Carlo De Rosa) [2013, США, драма, комедия, WEB-DLRip] MVO (НТВ+)

Ответить на тему
 
Автор Сообщение

user ®

Стаж: 7 лет 7 месяцев

Сообщений: 20008

Пост Пост: #1 от 24-Ноя-2013 09:10

[Цитировать]

В поисках радости / Finding Joy
Страна: США
Жанр: драма, комедия
Год выпуска: 2013
Продолжительность: 01:35:57
Перевод: Профессиональный (многоголосый закадровый) НТВ+
Cубтитры: нет
Режиссер: Карло Де Роза / Carlo De Rosa
В ролях: Джош Кук, Лиэн Балабан, Бэрри Боствик, Лэйни Казан, Тайлер Банч, Кики Харрис, Кармен Лопес, Фредрик Бэм Скотт
Описание: Эгоцентричный писатель Кайл, погрязший в рутине, заново открывает себя и свою семью, осознав, что означает быть счастливым, когда он встречает Джой - энергичную молодую женщину, которая просит его написать для нее некролог...
Сэмпл: http://multi-up.com/926238
Качество видео: WEB-DLRip
Формат видео: AVI
Видео: XviD, 1819 Кбит/с, 720x400, 23,976 fps
Аудио: AC3, 2 ch, 192 Кбит/с, 48 КГц

MediaInfo

Общее
Полное имя : D:\Finding.Joy_2013.WEBDLRip.avi
Формат : AVI
Формат/Информация : Audio Video Interleave
Размер файла : 1,35 Гбайт
Продолжительность : 1 ч. 35 м.
Общий поток : 2020 Кбит/сек
Программа кодирования : VirtualDubModRus 1.5.10.2 (build 2542/release)
Библиотека кодирования : VirtualDubMod build 2542/release
Видео
Идентификатор : 0
Формат : MPEG-4 Visual
Профиль формата : Advanced Simple@L5
Параметр BVOP формата : 1
Параметр QPel формата : Нет
Параметр GMC формата : Без точки перехода
Параметр матрицы формата : Default (MPEG)
Идентификатор кодека : XVID
Идентификатор кодека/Подсказка : XviD
Продолжительность : 1 ч. 35 м.
Битрейт : 1819 Кбит/сек
Ширина : 720 пикселей
Высота : 400 пикселей
Соотношение сторон : 16:9
Частота кадров : 23,976 кадра/сек
Цветовое пространство : YUV
Субдискретизация насыщенности : 4:2:0
Битовая глубина : 8 бит
Тип развёртки : Прогрессивная
Метод сжатия : С потерями
Бит/(Пиксели*Кадры) : 0.263
Размер потока : 1,22 Гбайт (90%)
Библиотека кодирования : XviD 64
Аудио
Идентификатор : 1
Формат : MPEG Audio
Версия формата : Version 1
Профиль формата : Layer 3
Режим : Joint stereo
Идентификатор кодека : 55
Идентификатор кодека/Подсказка : MP3
Продолжительность : 1 ч. 35 м.
Вид битрейта : Постоянный
Битрейт : 192 Кбит/сек
Каналы : 2 канала
Частота : 48,0 КГц
Метод сжатия : С потерями
Размер потока : 132 Мбайт (10%)
Выравнивание : Соединение по промежуткам
Продолжительность промежутка : 42 мс. (1,00 видеокадр)
Время предзагрузки промежутка : 504 мс.

Скриншот c названием фильма

Скриншоты

Скачать

Скачать торрент!

Как скачивать? · Что такое торрент? · Рейтинг и ограничения

Сайт не распространяет и не хранит электронные версии произведений, а лишь предоставляет доступ к создаваемому пользователями каталогу ссылок на торрент-файлы, которые содержат только списки хеш-сумм

[Профиль] [ЛС]
Показать сообщения:    
Ответить на тему

Текущее время: Сегодня 06:11

Часовой пояс: GMT + 4



Вы не можете начинать темы
Вы не можете отвечать на сообщения
Вы не можете редактировать свои сообщения
Вы не можете удалять свои сообщения
Вы не можете голосовать в опросах
Вы не можете прикреплять файлы к сообщениям
Вы не можете скачивать файлы