Кровью и потом: Анаболики / Pain & Gain (Майкл Бэй / Michael Bay) [2013, США, криминал, комедия, триллер, боевик, BDRip-AVC] Dub + Vo (Zamez) + Sub (Rus, Eng) + Original Eng

Ответить на тему
 
Автор Сообщение

user ®

Стаж: 7 лет 7 месяцев

Сообщений: 20008

Пост Пост: #1 от 24-Ноя-2013 09:10

[Цитировать]

Кровью и потом: Анаболики / Pain & Gain«Мечтай по-крупному»- Страна: США | Paramount Pictures
Жанр: криминал, комедия, триллер, боевик
Год выпуска: 2013
Продолжительность: 02:09:36-Перевод: Профессиональный (дублированный)
+ Одноголосый закадровый Замез - ненормативная лексика
+ Оригинал English
Cубтитры: русские, английские (SDH)-Режиссер: Майкл Бэй / Michael Bay
В ролях: Марк Уолберг, Дуэйн Джонсон, Энтони Маки, Эд Харрис, Тони Шэлуб, Кен Жонг, Иоланта Кабау ван Касберген, Виорика Пинеда, Роб Кордри, Ребел Уилсон- -Описание: Однажды тренеру по фитнесу надоело ходить в трениках. Он решил круто изменить свою судьбу и разбогатеть. Нашел двух других незадачливых качков и предложил им план похищения своего клиента-миллионера. Но если в организме мышц больше, чем мозгов, то даже самый лучший план, подсмотренный в экшен-боевике, может не сработать…-Качество видео: BDRip-AVC | | Сэмпл
Формат видео: MKV-Видео: 1152x480 (2.40:1), 23.976 fps, AVC ~4 472 kbps avg, 0.337 bit/pixel
Аудио 1: 48 kHz, AC3 Dolby Digital, 3/2 (L,C,R,l,r) + LFE ch, ~448.00 kbps avg | Профессиональный (дублированный)
Аудио 2: 48 kHz, AC3 Dolby Digital, 3/2 (L,C,R,l,r) + LFE ch, ~384.00 kbps avg | Одноголосый закадровый Замез - ненормативная лексика
Аудио 3: 48 kHz, AC3 Dolby Digital, 3/2 (L,C,R,l,r) + LFE ch, ~448.00 kbps avg | Оригинал English-Формат субтитров: softsub (srt)
Главы: есть-

Дополнительно

  • За русские сабы спасибо voronine

MediaInfo | x264

x264

x264 [info]: frame I:1733 Avg QP:18.75 size: 81474
x264 [info]: frame P:46739 Avg QP:19.31 size: 37836
x264 [info]: frame B:137985 Avg QP:20.41 size: 18474
x264 [info]: consecutive B-frames: 3.6% 4.4% 11.1% 32.4% 18.1% 23.2% 3.5% 1.5% 0.8% 0.4% 0.3% 0.3% 0.1% 0.1% 0.1% 0.1% 0.1%
x264 [info]: mb I I16..4: 6.8% 70.3% 22.9%
x264 [info]: mb P I16..4: 1.7% 15.1% 2.2% P16..4: 27.9% 31.5% 12.8% 2.2% 0.3% skip: 6.3%
x264 [info]: mb B I16..4: 0.3% 2.5% 0.3% B16..8: 32.7% 23.7% 4.8% direct:10.0% skip:25.7% L0:40.0% L1:40.1% BI:19.9%
x264 [info]: 8x8 transform intra:79.0% inter:61.6%
x264 [info]: direct mvs spatial:100.0% temporal:0.0%
x264 [info]: coded y,uvDC,uvAC intra: 83.8% 95.3% 90.4% inter: 31.1% 48.3% 34.0%
x264 [info]: i16 v,h,dc,p: 41% 12% 5% 41%
x264 [info]: i8 v,h,dc,ddl,ddr,vr,hd,vl,hu: 9% 8% 7% 10% 13% 13% 14% 12% 14%
x264 [info]: i4 v,h,dc,ddl,ddr,vr,hd,vl,hu: 12% 11% 7% 8% 14% 13% 13% 10% 13%
x264 [info]: i8c dc,h,v,p: 50% 17% 14% 20%
x264 [info]: Weighted P-Frames: Y:5.4% UV:3.8%
x264 [info]: ref P L0: 46.8% 13.7% 16.3% 5.6% 4.9% 3.1% 2.5% 1.4% 1.3% 1.1% 1.0% 0.7% 0.7% 0.6% 0.1% 0.1%
x264 [info]: ref B L0: 72.8% 11.8% 5.2% 2.7% 2.1% 1.4% 1.1% 0.7% 0.7% 0.8% 0.4% 0.2% 0.1%
x264 [info]: ref B L1: 92.8% 7.2%
x264 [info]: kb/s:4471.65
x264 [total]: encoded 186457 frames, 8.62 fps, 4471.65 kb/s
General
Unique ID : 171338511714398215481006873374002465622 (0x80E698D73430061A8CED40D0B1174B56)
Complete name : D:\Фильмы\Рипы\Pain & Gain.2013.BDRip-AVC.Fredd Kruger.mkv
Format : Matroska
Format version : Version 2
File size : 5.31 GiB
Duration : 2h 9mn
Overall bit rate : 5 869 Kbps
Movie name : Fredd Kruger
Encoded date : UTC 2013-11-24 04:17:56
Writing application : mkvmerge v5.0.1 ('Es ist Sommer') built on Nov 6 2011 16:23:40
Writing library : libebml v1.2.2 + libmatroska v1.3.0
Video
ID : 1
Format : AVC
Format/Info : Advanced Video Codec
Format profile : High@L4.0
Format settings, CABAC : Yes
Format settings, ReFrames : 14 frames
Codec ID : V_MPEG4/ISO/AVC
Duration : 2h 9mn
Bit rate : 4 472 Kbps
Width : 1 152 pixels
Height : 480 pixels
Display aspect ratio : 2.40:1
Frame rate mode : Constant
Frame rate : 23.976 fps
Color space : YUV
Chroma subsampling : 4:2:0
Bit depth : 8 bits
Scan type : Progressive
Bits/(Pixel*Frame) : 0.337
Stream size : 4.05 GiB (76%)
Title : Encode by Fredd Kruger
Writing library : x264 core 140 r2377kMod 1ca7bb9
Encoding settings : cabac=1 / ref=14 / deblock=1:-3:-3 / analyse=0x3:0x133 / me=umh / subme=11 / psy=1 / fade_compensate=0.00 / psy_rd=0.92:0.00 / mixed_ref=1 / me_range=48 / chroma_me=1 / trellis=2 / 8x8dct=1 / cqm=0 / deadzone=21,11 / fast_pskip=1 / chroma_qp_offset=-4 / threads=12 / lookahead_threads=3 / sliced_threads=0 / nr=0 / decimate=1 / interlaced=0 / bluray_compat=0 / constrained_intra=0 / fgo=0 / bframes=16 / b_pyramid=2 / b_adapt=2 / b_bias=0 / direct=3 / weightb=1 / open_gop=0 / weightp=2 / keyint=250 / keyint_min=23 / scenecut=40 / intra_refresh=0 / rc_lookahead=60 / rc=crf / mbtree=0 / crf=18.2500 / qcomp=0.65 / qpmin=0 / qpmax=69 / qpstep=4 / vbv_maxrate=25000 / vbv_bufsize=31250 / crf_max=0.0 / nal_hrd=none / filler=0 / ip_ratio=1.15 / pb_ratio=1.15 / aq=3:0.85
Default : Yes
Forced : No
Audio #1
ID : 2
Format : AC-3
Format/Info : Audio Coding 3
Mode extension : CM (complete main)
Format settings, Endianness : Big
Codec ID : A_AC3
Duration : 2h 9mn
Bit rate mode : Constant
Bit rate : 448 Kbps
Channel(s) : 6 channels
Channel positions : Front: L C R, Side: L R, LFE
Sampling rate : 48.0 KHz
Bit depth : 16 bits
Compression mode : Lossy
Stream size : 415 MiB (8%)
Title : Dub
Language : Russian
Default : Yes
Forced : No
Audio #2
ID : 3
Format : AC-3
Format/Info : Audio Coding 3
Mode extension : CM (complete main)
Format settings, Endianness : Big
Codec ID : A_AC3
Duration : 2h 9mn
Bit rate mode : Constant
Bit rate : 384 Kbps
Channel(s) : 6 channels
Channel positions : Front: L C R, Side: L R, LFE
Sampling rate : 48.0 KHz
Bit depth : 16 bits
Compression mode : Lossy
Stream size : 356 MiB (7%)
Title : Zamez
Language : Russian
Default : No
Forced : No
Audio #3
ID : 4
Format : AC-3
Format/Info : Audio Coding 3
Mode extension : CM (complete main)
Format settings, Endianness : Big
Codec ID : A_AC3
Duration : 2h 9mn
Bit rate mode : Constant
Bit rate : 448 Kbps
Channel(s) : 6 channels
Channel positions : Front: L C R, Side: L R, LFE
Sampling rate : 48.0 KHz
Bit depth : 16 bits
Compression mode : Lossy
Stream size : 415 MiB (8%)
Language : English
Default : No
Forced : No
Text #1
ID : 5
Format : UTF-8
Codec ID : S_TEXT/UTF8
Codec ID/Info : UTF-8 Plain Text
Language : Russian
Default : No
Forced : No
Text #2
ID : 6
Format : UTF-8
Codec ID : S_TEXT/UTF8
Codec ID/Info : UTF-8 Plain Text
Language : English
Default : No
Forced : No
Text #3
ID : 7
Format : UTF-8
Codec ID : S_TEXT/UTF8
Codec ID/Info : UTF-8 Plain Text
Title : SDH
Language : English
Default : No
Forced : No
Menu
00:00:00.000 : en:00:00:00.000
00:02:34.654 : en:00:02:34.654
00:09:33.990 : en:00:09:33.990
00:16:08.676 : en:00:16:08.676
00:22:05.658 : en:00:22:05.658
00:25:50.841 : en:00:25:50.841
00:32:45.505 : en:00:32:45.505
00:38:52.789 : en:00:38:52.789
00:46:19.652 : en:00:46:19.652
00:51:40.973 : en:00:51:40.973
00:58:11.738 : en:00:58:11.738
01:04:03.548 : en:01:04:03.548
01:10:32.311 : en:01:10:32.311
01:16:17.281 : en:01:16:17.281
01:21:20.542 : en:01:21:20.542
01:29:00.085 : en:01:29:00.085
01:37:06.029 : en:01:37:06.029
01:42:17.715 : en:01:42:17.715
01:49:10.461 : en:01:49:10.461
01:56:34.487 : en:01:56:34.487
02:01:42.295 : en:02:01:42.295

Скриншоты

Скачать

Скачать торрент!

Как скачивать? · Что такое торрент? · Рейтинг и ограничения

Сайт не распространяет и не хранит электронные версии произведений, а лишь предоставляет доступ к создаваемому пользователями каталогу ссылок на торрент-файлы, которые содержат только списки хеш-сумм

[Профиль] [ЛС]
Показать сообщения:    
Ответить на тему

Текущее время: Сегодня 20:39

Часовой пояс: GMT + 4



Вы не можете начинать темы
Вы не можете отвечать на сообщения
Вы не можете редактировать свои сообщения
Вы не можете удалять свои сообщения
Вы не можете голосовать в опросах
Вы не можете прикреплять файлы к сообщениям
Вы не можете скачивать файлы