Горько! (Жора Крыжовников) [2013, комедия, приключения, CamRip]

Ответить на тему
 
Автор Сообщение

user ®

Стаж: 7 лет 7 месяцев

Сообщений: 20008

Пост Пост: #1 от 23-Ноя-2013 21:25

[Цитировать]

Горько!
Жанр: комедия, приключения
Год выпуска: 2013
Продолжительность: 01:32:16
Режиссёр: Жора Крыжовников
В ролях: Сергей Светлаков, Юлия Александрова, Егор Корешков, Ян Цапник, Елена Валюшкина, Василий Кортуков, Юлия Стадник, Данила Якушев
Описание: Прогрессивные и талантливые Наташа и Рома мечтают о европейской свадьбе на берегу моря… но у Наташиного отчима заготовлен другой сценарий. Грубый чиновник городской администрации рассматривает торжество как трамплин для собственной карьеры и стремится устроить все «как надо». Молодых ждет незабываемый вечер в ресторане «Золотой» с полным набором занудных обрядов. Не в силах бороться, ребята решают провести свадьбу своей мечты в секрете от консервативных родственников. Но по нелепой случайности оба торжества сливаются воедино.
Доп. информация:
сценарий: Алексей Казаков, Николай Куликов, Жора Крыжовников, ...
продюсер: Илья Бурец, Дмитрий Нелидов, Сергей Светлаков, ...
оператор: Дмитрий Грибанов
художник: Елена Травкина, Варя Авдюшко, Николай Растимешин
монтаж: Александр Верхоляк
премьера (мир):25 октября 2013
премьера (РФ):24 октября 2013, «Bazelevs Distribution»

Сэмпл: http://multi-up.com/926092
Качество видео: CamRip
Формат видео: AVI
Видео: 720x288 (2.500:1), 25.000 fps, XviD, 1 984 Kbps
Аудио: MP3, 128 Kbps, 48.0 KHz, 2 ch

MediaInfo

General
Complete name : Gorko.2013.O.CAMRip.1400Mb. СПАМ
Format : AVI
Format/Info : Audio Video Interleave
File size : 1.37 GiB
Duration : 1h 32mn
Overall bit rate : 2 125 Kbps
Movie name : Gorko.2013.O.CAMRip.1400Mb. СПАМ
Director : СПАМ
Genre : Comedy/Adventure
Writing application : VirtualDubMod 1.5.10.3 | www.virtualdub-fr.org || (build 2550/release)
Original source form/Name : Movie
Copyright : http:// СПАМ
Video
ID : 0
Format : MPEG-4 Visual
Format profile : Advanced Simple@L5
Format settings, BVOP : Yes
Format settings, QPel : No
Format settings, GMC : No warppoints
Format settings, Matrix : Default (MPEG)
Codec ID : XVID
Codec ID/Hint : XviD
Duration : 1h 32mn
Bit rate : 1 984 Kbps
Width : 720 pixels
Height : 288 pixels
Display aspect ratio : 2.500
Frame rate : 25.000 fps
Color space : YUV
Chroma subsampling : 4:2:0
Bit depth : 8 bits
Scan type : Progressive
Bits/(Pixel*Frame) : 0.383
Stream size : 1.28 GiB (93%)
Writing library : XviD 1.2.1 (UTC 2008-12-04)
Audio
ID : 1
Format : MPEG Audio
Format version : Version 1
Format profile : Layer 3
Codec ID : 55
Codec ID/Hint : MP3
Duration : 1h 32mn
Bit rate mode : Variable
Bit rate : 128 Kbps
Channel(s) : 2 channels
Sampling rate : 48.0 KHz
Stream size : 84.5 MiB (6%)
Alignment : Aligned on interleaves
Interleave, duration : 24 ms (0.60 video frame)
Interleave, preload duration : 486 ms
Writing library : LAME3.99r
Encoding settings : -m s -V 4 -q 2 -lowpass 17 -b 128

Скриншот c названием фильма

Скриншоты



Скачать

Скачать торрент!

Как скачивать? · Что такое торрент? · Рейтинг и ограничения

Сайт не распространяет и не хранит электронные версии произведений, а лишь предоставляет доступ к создаваемому пользователями каталогу ссылок на торрент-файлы, которые содержат только списки хеш-сумм

[Профиль] [ЛС]
Показать сообщения:    
Ответить на тему

Текущее время: Сегодня 02:17

Часовой пояс: GMT + 4



Вы не можете начинать темы
Вы не можете отвечать на сообщения
Вы не можете редактировать свои сообщения
Вы не можете удалять свои сообщения
Вы не можете голосовать в опросах
Вы не можете прикреплять файлы к сообщениям
Вы не можете скачивать файлы