Два капитана, серии 3-6 из 6, (Евгений Карелов) [1976 г., Приключенческий, драма, драма, DVB]

Ответить на тему
 
Автор Сообщение

user ®

Стаж: 7 лет 7 месяцев

Сообщений: 20008

Пост Пост: #1 от 23-Ноя-2013 21:25

[Цитировать]

Два капитана
Жанр: Приключенческий, драма
Год выпуска: 1976
Продолжительность: 01:23:00+01:10:00+01:13:00+01:03:00
Режиссёр: Евгений Карелов
В ролях: Борис Токарев — Саня Григорьев, Сергей Кудрявцев — Саня в детстве
Елена Прудникова — Катя Татаринова, Лена Лобкина — Катя в детстве
Юрий Богатырёв — Михаил Ромашов (Ромашка), Алёша Сенчев — Ромашов в детстве
Наталья Егорова — Саша Григорьева, сестра Сани, Ира Клименко — Саша Григорьева в детстве
Николай Гриценко — Николай Антонович Татаринов
Георгий Куликов — Иван Павлович Кораблёв
Ирина Печерникова — Мария Васильевна Татаринова
Владимир Заманский — доктор Иван Иванович
Зинаида Кириенко — Аксинья Фёдоровна, мать Сани
Александр Лукьянов — Иван Григорьев, отец Сани
Вера Кузнецова — Нина Капитоновна
Александр Вигдоров — Валька Жуков
Юрий Кузьменков — Петька Сковородников, Саша Пузанков — Петька Сковородников в детстве
Евгений Гуров — чиновник юстиции
Чеслав Сушкевич — продавец часов
Михаил Пуговкин — Гаер Кулий
Александр Вокач — Николай Иванович фон Вышимирский
Данута Столярская — жена начальника училища
Пётр Любешкин — Пётр Владимирович Сковородников
Любовь Соколова — тётя Даша Сковородникова
Михаил Погоржельский — Владимир Юрьевич Ванин
Борислав Брондуков — Голубь, жулик
Анатолий Яббаров — убийца на берегу
Наталья Крачковская — продавщица пирожков на катке
Иван Власов — капитан Татаринов
Владимир Маренков — майор Ильин
Юлия Цоглин — медсестра на фронте
Лариса Виккел — Кирен
Сергей Приселков — эпизод (нет в титрах)
Описание: В фильме рассказывается история Сани Григорьева, который после революции приехал из провинциального города Энска в Москву. Он стал полярным лётчиком и посвятил свою жизнь поискам пропавшей в Арктике экспедиции капитана Ивана Татаринова. Саня влюблён в дочь капитана Татаринова Катю, но их любви мешает дядя Кати Николай Антонович, некогда сыгравший свою роль в том, что экспедиция не вернулась.
Сэмпл
Запись со спутника Yamal 202 at 49.0°E
Качество видео: DVB
Формат видео: mpg
Видео: MPEG2, 704х576 (4:3), 4840 Kbps, 25 fps, Bits/(Pixel*Frame) : 0.477
Аудио: MP2, 192 Kbps, 2 ch, 48 KHz

MediaInfo

G:\СЕРИАЛЫ\Два капитана\Два капитана - 3 серия.mpg
General
Complete name : G:\СЕРИАЛЫ\Два капитана\Два капитана - 3 серия.mpg
Format : MPEG-PS
File size : 2.95 GiB
Duration : 1h 23mn
Overall bit rate mode : Variable
Overall bit rate : 5 095 Kbps
Video #224
ID : 224 (0xE0)
Format : MPEG Video
Format version : Version 2
Format profile : Main@Main
Format settings, BVOP : Yes
Format settings, Matrix : Custom
Format settings, GOP : M=1, N=26
Duration : 1h 23mn
Bit rate mode : Variable
Bit rate : 4 840 Kbps
Width : 704 pixels
Height : 576 pixels
Display aspect ratio : 4:3
Frame rate : 25.000 fps
Standard : PAL
Color space : YUV
Chroma subsampling : 4:2:0
Bit depth : 8 bits
Scan type : Interlaced
Scan order : Top Field First
Compression mode : Lossy
Bits/(Pixel*Frame) : 0.477
Stream size : 2.78 GiB (94%)
Audio #192
ID : 192 (0xC0)
Format : MPEG Audio
Format version : Version 1
Format profile : Layer 2
Duration : 1h 23mn
Bit rate mode : Constant
Bit rate : 192 Kbps
Channel(s) : 2 channels
Sampling rate : 48.0 KHz
Compression mode : Lossy
Delay relative to video : 7ms
Stream size : 114 MiB (4%)

Скриншоты

Скачать

Скачать торрент!

Как скачивать? · Что такое торрент? · Рейтинг и ограничения

Сайт не распространяет и не хранит электронные версии произведений, а лишь предоставляет доступ к создаваемому пользователями каталогу ссылок на торрент-файлы, которые содержат только списки хеш-сумм

[Профиль] [ЛС]
Показать сообщения:    
Ответить на тему

Текущее время: Сегодня 06:10

Часовой пояс: GMT + 4



Вы не можете начинать темы
Вы не можете отвечать на сообщения
Вы не можете редактировать свои сообщения
Вы не можете удалять свои сообщения
Вы не можете голосовать в опросах
Вы не можете прикреплять файлы к сообщениям
Вы не можете скачивать файлы