Приливы / The Hot Flashes (Сьюзэн Сейдельман / Susan Seidelman) [2013, США, Комедия, DVDRip] DVO (студия Elrom) + Original Eng

Ответить на тему
 
Автор Сообщение

user ®

Стаж: 7 лет 7 месяцев

Сообщений: 20008

Пост Пост: #1 от 23-Ноя-2013 21:25

[Цитировать]

Приливы / The Hot Flashes
Страна: США
Жанр: Комедия
Год выпуска: 2013
Продолжительность: 01:39:37
Перевод: Профессиональный (двухголосый закадровый) студия Elrom
Cубтитры: нет
Оригинальная аудиодорожка: английский
Режиссер: Сьюзэн Сейдельман / Susan Seidelman
В ролях: Брук Шилдс /Brooke Shields/, Дэрил Ханна /Daryl Hannah/, Шарлотт Грэхэм /Charlotte Graham/, Карл Палмер /Carl Palmer/, Ванда Сайкес /Wanda Sykes/, Эрик Робертс /Eric Roberts/, Джессика Ротэ /Jessica Rothe/, Андреа Франкл /Andrea Frankle/
Описание: Пять "бабушек" бальзаковского возраста собрались в команду и решили вздрючить местных баскетбольных чемпионов. Все они когда-то в школе и колледже кидали мяч в кольцо и сейчас они решили бросить вызов команде не знающей поражений. Денежный приз они собираются пожертвовать на борьбу с раком груди.
Доп. информация:
IMDB
Производство: Vertical Entertainment, The Hot Flashes LLC (США)
Sample
Качество видео: DVDRip (The.Hot.Flashes.2013.DVDRiP.AC3-5.1.XviD-AXED.avi)
Формат видео: AVI
Видео: Xvid 720x384 23.98fps 1503kbps
Аудио: Dolby AC3 48000Hz stereo 192kbps [Rus]
Аудио 2: Dolby AC3 48000Hz 6ch 384kbps [Eng]

MediaInfo

General
Complete name : P:\The Hot Flashes 2013 DVDRiP AC3-5 1 XviD-AXED\Prilivy.2013.DVDRip.XviD.Rus-Eng_25KADR.avi
Format : AVI
Format/Info : Audio Video Interleave
File size : 1.46 GiB
Duration : 1h 39mn
Overall bit rate : 2 094 Kbps
Movie name : Prilivy.2013
Original source form/Distributed : The.Hot.Flashes.2013.DVDRiP.AC3-5.1.XviD-AXED.avi
Genre : Comedu, Drama, Sport
Copyright : 25KADR
Comment : DVO (ELROM studio)
Video
ID : 0
Format : MPEG-4 Visual
Format profile : Advanced Simple@L5
Format settings, BVOP : Yes
Format settings, QPel : No
Format settings, GMC : No warppoints
Format settings, Matrix : Default (H.263)
Codec ID : XVID
Codec ID/Hint : XviD
Duration : 1h 39mn
Bit rate : 1 504 Kbps
Width : 720 pixels
Height : 384 pixels
Display aspect ratio : 1.875
Frame rate : 23.976 fps
Color space : YUV
Chroma subsampling : 4:2:0
Bit depth : 8 bits
Scan type : Progressive
Bits/(Pixel*Frame) : 0.227
Stream size : 1.05 GiB (72%)
Writing library : XviD 64
Audio #1
ID : 1
Format : AC-3
Format/Info : Audio Coding 3
Mode extension : CM (complete main)
Codec ID : 2000
Duration : 1h 39mn
Bit rate mode : Constant
Bit rate : 192 Kbps
Channel(s) : 2 channels
Channel positions : Front: L R
Sampling rate : 48.0 KHz
Bit depth : 16 bits
Stream size : 137 MiB (9%)
Alignment : Split accross interleaves
Interleave, duration : 42 ms (1.00 video frame)
Interleave, preload duration : 500 ms
Language : Russian
Audio #2
ID : 2
Format : AC-3
Format/Info : Audio Coding 3
Mode extension : CM (complete main)
Codec ID : 2000
Duration : 1h 39mn
Bit rate mode : Constant
Bit rate : 384 Kbps
Channel(s) : 6 channels
Channel positions : Front: L C R, Side: L R, LFE
Sampling rate : 48.0 KHz
Bit depth : 16 bits
Stream size : 274 MiB (18%)
Alignment : Split accross interleaves
Interleave, duration : 42 ms (1.00 video frame)
Interleave, preload duration : 500 ms

Скриншоты



Скачать

Скачать торрент!

Как скачивать? · Что такое торрент? · Рейтинг и ограничения

Сайт не распространяет и не хранит электронные версии произведений, а лишь предоставляет доступ к создаваемому пользователями каталогу ссылок на торрент-файлы, которые содержат только списки хеш-сумм

[Профиль] [ЛС]
Показать сообщения:    
Ответить на тему

Текущее время: Сегодня 04:46

Часовой пояс: GMT + 4



Вы не можете начинать темы
Вы не можете отвечать на сообщения
Вы не можете редактировать свои сообщения
Вы не можете удалять свои сообщения
Вы не можете голосовать в опросах
Вы не можете прикреплять файлы к сообщениям
Вы не можете скачивать файлы