Джacтин и pыцaри дoблeсти / Jusтіn аnd thу Knіghтs оf Vаlоur (Мaнуэль Сиcилия / Manuеl Sісilia) [2013 г., мультфильм, приключения, семейный, DVDRip-AVC] Dub

Ответить на тему
 
Автор Сообщение

user ®

Стаж: 12 лет

Сообщений: 15145

Пост Пост: #1 от 23-Ноя-2013 18:15

[Цитировать]

| DVDRip-AVC, 1.23 GB |-A N T O N I O
B A N D E R A S
P R E S E N T SДжастин и рыцари доблести / Justin and the Knights of Valour- Страна: Испания
Жанр: мультфильм, приключения, семейный
Продолжительность: 01:32:02
Год выпуска: 2013
Перевод: Профессиональный (полное дублирование)
Субтитры: нет-Режиссёр: Мануэль Сисилия / Manuel Sicilia
Роли озвучивали: Фредди Хаймор, Сирша Ронан, Марк Стронг, Дэвид Уоллиамс, Антонио Бандерас, Альфред Молина, Джули Уолтерс, Оливия Уильямс, Чарльз Дэнс, Руперт Эверетт, Джеймс Космо, Майкл Калкин, Тэмсин Эгертон, Стивен Хьюз, Бэрри Хамфриз, Ллойд Хатчинсон- | | -Описание: Действие мультфильма разворачивается в магическом мире, о котором мечтает каждый ребёнок. Джастин мечтает стать рыцарем, но на его пути появляется много препятствий бюрократического характера. Даже отец Джастина против рыцарства и хочет, чтобы сын стал придворным служащим. Тогда мальчик, обуреваемый желанием стать настоящим доблестным Рыцарем, сбегает из дома в поисках приключений. По дороге он знакомится с прекрасной девушкой - Талией, вдохновляющей его на новые подвиги, и встречает мудрых рыцарей-наставников, которые обучают его рыцарскому мастерству. Но хватит ли Джастину полученных знаний для того, чтобы справиться с угрозой, которая нависла над его Королевством? Сумеет ли мальчик преодолеть все препятствия и достичь своей мечты?...-Доп. информация:
Анаморфный рип 720х428@1024x428 (2.393:1) сделан с DVD9 R5 Justin and the Knights of Valour 2013.
-Сэмпл/Sample
(16.4 MB, 1 минута)-Качество: DVDRip-AVC
Формат: MKV
Видео: 720x428@1024x428 (2.393:1), 25,000 fps, ~1469 kbps avg, 0.191 bit/pixel
Аудио #1: Русский, AC3, 6 ch, 48 kHz, 448 kbps - Дубляж | Студия Мосфильм-Мастер
Субтитры: нет
Навигация по главам: есть (12 не именованных глав)

MediaInfo / x264Log

x264Log

raw [info]: 720x428p 64:45 @ 25/1 fps (cfr)x264 [info]: using SAR=64/45x264 [info]: using cpu capabilities: MMX2 SSE2Fast SSSE3 SSE4.2 AVX XOP FMA4 FMA3 LZCNT BMI1x264 [info]: profile High, level 4.1x264 [info]: frame I:1486 Avg QP:15.02 size: 51052 PSNR Mean Y:48.37 U:50.18 V:50.24 Avg:48.88 Global:48.47x264 [info]: frame P:39091 Avg QP:16.62 size: 13859 PSNR Mean Y:46.78 U:48.91 V:48.98 Avg:47.34 Global:46.91x264 [info]: frame B:97483 Avg QP:19.98 size: 4067 PSNR Mean Y:46.30 U:48.74 V:48.77 Avg:46.93 Global:46.39x264 [info]: consecutive B-frames: 6.2% 5.1% 18.4% 30.8% 11.5% 24.4% 1.3% 1.3% 0.2% 0.1% 0.3% 0.3% 0.2%x264 [info]: mb I I16..4: 2.0% 72.1% 25.8%x264 [info]: mb P I16..4: 0.5% 12.0% 1.9% P16..4: 25.7% 25.9% 14.5% 2.9% 0.4% skip:16.3%x264 [info]: mb B I16..4: 0.1% 2.0% 0.2% B16..8: 24.2% 15.7% 3.2% direct: 4.7% skip:49.9% L0:32.4% L1:43.8% BI:23.8%x264 [info]: 8x8 transform intra:82.2% inter:55.9%x264 [info]: coded y,uvDC,uvAC intra: 90.3% 92.0% 77.1% inter: 17.9% 16.6% 6.2%x264 [info]: i16 v,h,dc,p: 17% 17% 3% 62%x264 [info]: i8 v,h,dc,ddl,ddr,vr,hd,vl,hu: 21% 13% 11% 7% 8% 11% 7% 12% 11%x264 [info]: i4 v,h,dc,ddl,ddr,vr,hd,vl,hu: 23% 10% 6% 7% 13% 15% 9% 10% 7%x264 [info]: i8c dc,h,v,p: 35% 21% 25% 19%x264 [info]: Weighted P-Frames: Y:3.2% UV:2.3%x264 [info]: ref P L0: 57.1% 12.8% 13.3% 4.2% 3.2% 2.4% 2.0% 1.1% 1.0% 0.9% 0.8% 0.8% 0.3% 0.0%x264 [info]: ref B L0: 86.9% 6.9% 2.3% 1.1% 0.8% 0.6% 0.5% 0.3% 0.2% 0.2% 0.1%x264 [info]: ref B L1: 95.8% 4.2%x264 [info]: SSIM Mean Y:0.9905348 (20.239db)x264 [info]: PSNR Mean Y:46.460 U:48.805 V:48.846 Avg:47.067 Global:46.545 kb/s:1469.02encoded 138060 frames, 11.08 fps, 1469.02 kb/s
GeneralUnique ID : 201606523789725329240170315980440154095 (0x97AC010DAEFF8B538475BCB020152FEF)Complete name : Justin.and.the.Knights.of.Valour.2013.DVDRip-AVC.428p.dfcbit.mkvFormat : MatroskaFormat version : Version 2File size : 1.23 GiBDuration : 1h 32mnOverall bit rate : 1 919 KbpsEncoded date : UTC 2013-11-23 04:20:21Writing application : mkvmerge v4.0.0 ('The Stars were mine') built on Jun 6 2010 16:18:42Writing library : libebml v1.0.0 + libmatroska v1.0.0
VideoID : 1Format : AVCFormat/Info : Advanced Video CodecFormat profile : High@L4.1Format settings, CABAC : YesFormat settings, ReFrames : 12 framesCodec ID : V_MPEG4/ISO/AVCDuration : 1h 32mnBit rate : 1 469 KbpsWidth : 720 pixelsHeight : 428 pixelsDisplay aspect ratio : 2.40:1Frame rate mode : ConstantFrame rate : 25.000 fpsColor space : YUVChroma subsampling : 4:2:0Bit depth : 8 bitsScan type : ProgressiveBits/(Pixel*Frame) : 0.191Stream size : 967 MiB (75%)Title : PAL, 720x428@1024x428 (2.393:1), DVDRip 428p - tRuAVC & Myltfilmy [DFCbit]Writing library : x264 core 140 r2377kMod 1ca7bb9Encoding settings : cabac=1 / ref=12 / deblock=1:-3:-2 / analyse=0x3:0x133 / me=umh / subme=11 / psy=1 / fade_compensate=0.00 / psy_rd=0.60:0.00 / mixed_ref=1 / me_range=32 / chroma_me=1 / trellis=2 / 8x8dct=1 / cqm=0 / deadzone=21,11 / fast_pskip=0 / chroma_qp_offset=-2 / threads=12 / lookahead_threads=3 / sliced_threads=0 / nr=0 / decimate=1 / interlaced=0 / bluray_compat=0 / constrained_intra=0 / fgo=0 / bframes=12 / b_pyramid=2 / b_adapt=2 / b_bias=0 / direct=1 / weightb=1 / open_gop=0 / weightp=2 / keyint=250 / keyint_min=25 / scenecut=40 / intra_refresh=0 / rc_lookahead=70 / rc=crf / mbtree=0 / crf=17.0100 / qcomp=0.80 / qpmin=0 / qpmax=69 / qpstep=4 / vbv_maxrate=25000 / vbv_bufsize=50000 / crf_max=0.0 / nal_hrd=none / filler=0 / ip_ratio=1.40 / pb_ratio=1.30 / aq=3:0.90Language : EnglishDefault : YesForced : NoColor primaries : BT.601 PALTransfer characteristics : BT.470 System B, BT.470 System GMatrix coefficients : BT.601
AudioID : 2Format : AC-3Format/Info : Audio Coding 3Mode extension : CM (complete main)Format settings, Endianness : BigCodec ID : A_AC3Duration : 1h 32mnBit rate mode : ConstantBit rate : 448 KbpsChannel(s) : 6 channelsChannel positions : Front: L C R, Side: L R, LFESampling rate : 48.0 KHzBit depth : 16 bitsCompression mode : LossyStream size : 295 MiB (23%)Title : AC3, 6 ch, 48 kHz, 448 kbps - Дубляж | Мосфильм-МастерLanguage : RussianDefault : YesForced : No
Menu00:00:00.000 : en:Chapter 100:07:32.000 : en:Chapter 200:15:57.520 : en:Chapter 300:23:26.040 : en:Chapter 400:32:24.760 : en:Chapter 500:39:26.080 : en:Chapter 600:46:52.880 : en:Chapter 700:56:18.040 : en:Chapter 801:03:39.640 : en:Chapter 901:11:10.080 : en:Chapter 1001:20:09.960 : en:Chapter 1101:25:47.200 : en:Chapter 12

Скриншоты

Скриншот с названием мультфильма
--DVDRip-AVC


Source DVD

-Данный релиз не будет воспроизводиться на бытовых плеерах не поддерживающих MKV и H.264
Скачать

Скачать торрент! Джacтин и pыцaри дoблeсти / Jusтіn аnd thу Knіghтs оf Vаlоur (Мaнуэль Сиcилия / Manuеl Sісilia) [2013 г., мультфильм, приключения, семейный, DVDRip-AVC] Dub

Как скачивать? · Что такое торрент? · Рейтинг и ограничения

Сайт не распространяет и не хранит электронные версии произведений, а лишь предоставляет доступ к создаваемому пользователями каталогу ссылок на торрент-файлы, которые содержат только списки хеш-сумм

[Профиль] [ЛС]
Показать сообщения:    
Ответить на тему

Текущее время: Сегодня 12:53

Часовой пояс: GMT + 4



Вы не можете начинать темы
Вы не можете отвечать на сообщения
Вы не можете редактировать свои сообщения
Вы не можете удалять свои сообщения
Вы не можете голосовать в опросах
Вы не можете прикреплять файлы к сообщениям
Вы не можете скачивать файлы