Фантом / Phantom (Тодд Робинсон / Todd Robinson) [2013, США, триллер, BDRip 720p] MVO + AVO + Original eng + Sub eng

Ответить на тему
 
Автор Сообщение

user ®

Стаж: 7 лет 7 месяцев

Сообщений: 20008

Пост Пост: #1 от 23-Ноя-2013 18:15

[Цитировать]

Фантом / Phantom
«You'll never see it coming»

Год выпуска: 2013
Страна: США
Производство: Trilogy Entertainment Group
Жанр: триллер
Продолжительность: 01:38:28
Перевод 1: Профессиональный (Многоголосый, закадровый) [лицензия]
Перевод 2: Авторский (Одноголосый, закадровый) [А. Дольский]
Субтитры: Английские
Режиссер: Тодд Робинсон / Todd Robinson
В ролях: Эд Харрис, Дэвид Духовны, Уильям Фихтнер, Лэнс Хенриксен, Джонатон Шек, Джейсон Бех, Дагмара Доминчук, Дерек Магияр, Шон Патрик, Флэнери Джейсон, Грей-Стенфорд
Описание: Капитан советской подводной лодки держит в своих руках судьбу всего мира. Вынужденному покинуть свою семью, ему приходится возглавить секретную миссию окутанную тайной…


Премьера(мир) - 1 марта 2013
Бюджет - $18 000 000

Качество: BDRip 720p
Формат: MKV
Видео кодек: AVC
Аудио кодек: AC3, DTS
Видео: 1280x544 (2,35:1), 23.976 fps, MPEG4-AVC, 5503 kbps, 0.330 bit/ pixel
Аудио (RUS): 48 kHz, Audio Coding 3, 3/2 (L,C,R,l,r) + LFE ch, 384 kbps avg - |Профессиональный (Многоголосый, закадровый) [лицензия]|
Аудио (RUS): 48 kHz, Audio Coding 3, 3/2 (L,C,R,l,r) + LFE ch, 448 kbps avg - |Авторский (Одноголосый, закадровый) [А.Дольский]|
Аудио (ENG): 48 kHz, Digital Theater Systems, 3/2 (L,C,R,l,r) + LFE ch, 1509 kbps avg - |Оригинал|

MI

Общее
Уникальный идентификатор                 : 240382904031690972728980246393249780761 (0xB4D8103462B1CE01A058DE0E03E2D419)
Полное имя                               : D:\Phantom.2013.720p.BluRay.x264.DTS-HDWinG\Fantom.2013.P.BDRip.720p.mkv
Формат                                   : Matroska
Версия формата                           : Version 2
Размер файла                             : 5,51 Гбайт
Продолжительность                        : 1 ч. 38 м.
Общий поток                              : 8004 Кбит/сек
Название фильма                          : -=POTROKS=-
Дата кодирования                         : UTC 2013-11-21 13:44:10
Программа кодирования                    : mkvmerge v6.3.0 ('You can't stop me!') built on Jun 28 2013 20:09:41
Библиотека кодирования                   : libebml v1.3.0 + libmatroska v1.4.0
Видео
Идентификатор                            : 1
Формат                                   : AVC
Формат/Информация                        : Advanced Video Codec
Профиль формата                          : High@L4.1
Параметр CABAC формата                   : Да
Параметр ReFrames формата                : 11 кадров
Идентификатор кодека                     : V_MPEG4/ISO/AVC
Продолжительность                        : 1 ч. 38 м.
Битрейт                                  : 5503 Кбит/сек
Ширина                                   : 1280 пикселей
Высота                                   : 544 пикселя
Соотношение сторон                       : 2,35:1
Режим частоты кадров                     : Постоянный
Частота кадров                           : 23,976 кадра/сек
Цветовое пространство                    : YUV
Субдискретизация насыщенности            : 4:2:0
Битовая глубина                          : 8 бит
Тип развёртки                            : Прогрессивная
Бит/(Пиксели*Кадры)                      : 0.330
Размер потока                            : 3,79 Гбайт (69%)
Библиотека кодирования                   : x264 core 132 r2323+704+51 d571b1c tMod [8-bit@4:2:0 X86_64]
Настройки программы                      : cabac=1 / ref=11 / deblock=1:-3:-3 / analyse=0x3:0x113 / me=umh / subme=11 / psy=1 / fade_compensate=0.00 / psy_rd=1.05:0.00 / mixed_ref=1 / me_range=32 / chroma_me=1 / trellis=2 / 8x8dct=1 / cqm=0 / deadzone=21,11 / fast_pskip=0 / chroma_qp_offset=-2 / threads=36 / lookahead_threads=4 / sliced_threads=0 / nr=0 / decimate=0 / interlaced=0 / bluray_compat=0 / constrained_intra=0 / fgo=0 / bframes=8 / b_pyramid=2 / b_adapt=2 / b_bias=0 / direct=3 / weightb=1 / open_gop=0 / weightp=2 / keyint=240 / keyint_min=24 / scenecut=40 / intra_refresh=0 / rc_lookahead=240 / rc=crf / mbtree=1 / crf=17.5000 / qcomp=0.70 / qpmin=0 / qpmax=69 / qpstep=4 / ip_ratio=1.20 / aq=4:0.85 / aq-sensitivity=10.00 / aq-factor=1.00:1.00:1.00 / aq2=0 / aq3=0
Язык                                     : English
Default                                  : Да
Forced                                   : Нет
Аудио #1
Идентификатор                            : 2
Формат                                   : AC-3
Формат/Информация                        : Audio Coding 3
Расширение режима                        : CM (complete main)
Параметр Endianness формата              : Big
Идентификатор кодека                     : A_AC3
Продолжительность                        : 1 ч. 38 м.
Вид битрейта                             : Постоянный
Битрейт                                  : 384 Кбит/сек
Каналы                                   : 6 каналов
Расположение каналов                     : Front: L C R, Side: L R, LFE
Частота                                  : 48,0 КГц
Битовая глубина                          : 16 бит
Метод сжатия                             : С потерями
Размер потока                            : 270 Мбайт (5%)
Заголовок                                : R5, MVO
Язык                                     : Russian
Default                                  : Да
Forced                                   : Нет
Аудио #2
Идентификатор                            : 3
Формат                                   : AC-3
Формат/Информация                        : Audio Coding 3
Расширение режима                        : CM (complete main)
Параметр Endianness формата              : Big
Идентификатор кодека                     : A_AC3
Продолжительность                        : 1 ч. 38 м.
Вид битрейта                             : Постоянный
Битрейт                                  : 448 Кбит/сек
Каналы                                   : 6 каналов
Расположение каналов                     : Front: L C R, Side: L R, LFE
Частота                                  : 48,0 КГц
Битовая глубина                          : 16 бит
Метод сжатия                             : С потерями
Размер потока                            : 316 Мбайт (6%)
Заголовок                                : AVO | DD 5.1 @ 448 kbps - А. Дольский
Язык                                     : Russian
Default                                  : Нет
Forced                                   : Нет
Аудио #3
Идентификатор                            : 4
Формат                                   : DTS
Формат/Информация                        : Digital Theater Systems
Режим                                    : 16
Параметр Endianness формата              : Big
Идентификатор кодека                     : A_DTS
Продолжительность                        : 1 ч. 38 м.
Вид битрейта                             : Постоянный
Битрейт                                  : 1509 Кбит/сек
Каналы                                   : 6 каналов
Расположение каналов                     : Front: L C R, Side: L R, LFE
Частота                                  : 48,0 КГц
Битовая глубина                          : 24 бит
Метод сжатия                             : С потерями
Размер потока                            : 1,04 Гбайт (19%)
Язык                                     : English
Default                                  : Нет
Forced                                   : Нет
Текст
Идентификатор                            : 5
Формат                                   : UTF-8
Идентификатор кодека                     : S_TEXT/UTF8
Идентификатор кодека/Информация          : UTF-8 Plain Text
Язык                                     : English
Default                                  : Нет
Forced                                   : Нет

Скриншоты

Скачать

Скачать торрент!

Как скачивать? · Что такое торрент? · Рейтинг и ограничения

Сайт не распространяет и не хранит электронные версии произведений, а лишь предоставляет доступ к создаваемому пользователями каталогу ссылок на торрент-файлы, которые содержат только списки хеш-сумм

[Профиль] [ЛС]
Показать сообщения:    
Ответить на тему

Текущее время: Сегодня 16:16

Часовой пояс: GMT + 4



Вы не можете начинать темы
Вы не можете отвечать на сообщения
Вы не можете редактировать свои сообщения
Вы не можете удалять свои сообщения
Вы не можете голосовать в опросах
Вы не можете прикреплять файлы к сообщениям
Вы не можете скачивать файлы