Клиент / The Client (Джоэл Шумахер / Joel Schumacher) [1994, США, триллер, драма, криминал, детектив, BDRemux 1080p] 2х DVO + 2х AVO + Sub Rus, Eng + Original Eng

Ответить на тему
 
Автор Сообщение

user ®

Стаж: 7 лет 7 месяцев

Сообщений: 20008

Пост Пост: #1 от 23-Ноя-2013 18:15

[Цитировать]

Клиент / The Client Страна: США
Студия: Regency Enterprises, Warner Bros. Pictures, Alcor Films
Жанр: триллер, драма, криминал, детектив
Год выпуска: 1994
Продолжительность: 02:00:45
Перевод 1: Профессиональный (двухголосый закадровый) [НТВ+, HDTV - 2008, текст читают Ольга Плетнёва и Александр Белый]
Перевод 2: Профессиональный (двухголосый закадровый) [DVD R5 - 2000 "Twister", VHS - 2001 "Гемини"]
Перевод 3: Авторский (одноголосый закадровый) [А.Гаврилов - DVD.NTSC]
Перевод 4: Авторский (одноголосый закадровый) [В.Горчаков - DVD.NTSC]
Cубтитры: русские, английские (SDH)
Оригинальная аудиодорожка: английский
Режиссер: Джоэл Шумахер / Joel Schumacher
В ролях: Сьюзен Сарандон, Томми Ли Джонс, Брэд Ренфро, Мэри-Луиз Паркер, Энтони ЛаПалья, Дж.Т. Уолш, Уилл Пэттон, Энтони Эдвардс, Уильям Х. Мэйси, Брэдли Уитфорд, Энтони Хилд, Ким Коутс, Миколе Миркурио, Эми Хэтэуэй, Рон Дин, Уильям Ричерт
Описание: 11-летний Марк невольно становится свидетелем самоубийства адвоката, работающего на мафию. Преступники готовы избавиться от него любым способом. А представители закона озабочены только его показаниями и не гарантируют Марку и его семье полноценной защиты.
Он самостоятельно решил обратиться за помощью к адвокату Рэджи Лав, чтобы сохранить свою жизнь и добиться справедливости.
Доп. информация:

Тип релиза: BD-Remux 1080p
Контейнер: MKV
Видео: MPEG-4 AVC Video 1080p / 16:9 / 30,0 Mbps / 23,976 fps / High Profile 4.1
Аудио 1: Russian: AC3, 2.0 ch, 224 kbps, 48 kHz | двухголосый [НТВ+]
Аудио 2: Russian: AC3, 2.0 ch, 192 kbps, 48 kHz | двухголосый [DVD R5]
Аудио 3: Russian: AC3, 2.0 ch, 192 kbps, 48 kHz | одноголосый [Гаврилов]
Аудио 4: Russian: AC3, 2.0 ch, 192 kbps, 48 kHz | одноголосый [Горчаков]
Аудио 5: English: DTS-HD Master Audio 2.0, 2108 kbps, 24-bit, 48 kHz (DTS Core: 2.0, 1509 kbps, 24-bit, 48 kHz)
Формат субтитров: softsub (SRT)
Главы:

MediaInfo

Общее
Уникальный идентификатор : 221664115407122645816312352287153761905 (0xA6C2F4ABC2E0BACBBF1BBFFDDA74AE71)
Полное имя : J:\TheClient.1994.BD-Remux.1080p.AVC.2xDVO.2xAVO.Eng.mkv
Формат : Matroska
Версия формата : Version 4 / Version 2
Размер файла : 27,7 Гбайт
Продолжительность : 2 ч. 0 м.
Режим общего битрейта : Переменный
Общий поток : 32,9 Мбит/сек
Название фильма : The Client (1994)
Дата кодирования : UTC 2013-11-22 08:11:12
Программа кодирования : mkvmerge v6.5.0 ('Isn't she lovely') built on Oct 20 2013 12:50:05
Библиотека кодирования : libebml v1.3.0 + libmatroska v1.4.1
Видео
Идентификатор : 1
Формат : AVC
Формат/Информация : Advanced Video Codec
Профиль формата : High@L4.1
Параметр CABAC формата : Да
Параметр ReFrames формата : 2 кадра
Идентификатор кодека : V_MPEG4/ISO/AVC
Продолжительность : 2 ч. 0 м.
Вид битрейта : Переменный
Ширина : 1920 пикселей
Высота : 1080 пикселей
Соотношение сторон : 16:9
Режим частоты кадров : Постоянный
Частота кадров : 23,976 кадра/сек
Цветовое пространство : YUV
Субдискретизация насыщенности : 4:2:0
Битовая глубина : 8 бит
Тип развёртки : Прогрессивная
Заголовок : MPEG-4 AVC | 1080p | 30,0 Mbps | 23,976 fps | 16:9 | High Profile 4.1
Язык : English
Default : Да
Forced : Нет
Аудио #1
Идентификатор : 2
Формат : AC-3
Формат/Информация : Audio Coding 3
Расширение режима : CM (complete main)
Параметр Endianness формата : Big
Идентификатор кодека : A_AC3
Продолжительность : 2 ч. 0 м.
Вид битрейта : Постоянный
Битрейт : 224 Кбит/сек
Каналы : 2 канала
Расположение каналов : Front: L R
Частота : 48,0 КГц
Битовая глубина : 16 бит
Метод сжатия : С потерями
Размер потока : 194 Мбайт (1%)
Заголовок : AC3 2.0ch 224kbps - двухголосый (НТВ+, HDTV - 2008)
Язык : Russian
Default : Да
Forced : Нет
Аудио #2
Идентификатор : 3
Формат : AC-3
Формат/Информация : Audio Coding 3
Расширение режима : CM (complete main)
Параметр Endianness формата : Big
Идентификатор кодека : A_AC3
Продолжительность : 2 ч. 0 м.
Вид битрейта : Постоянный
Битрейт : 192 Кбит/сек
Каналы : 2 канала
Расположение каналов : Front: L R
Частота : 48,0 КГц
Битовая глубина : 16 бит
Метод сжатия : С потерями
Размер потока : 166 Мбайт (1%)
Заголовок : AC3 2.0ch 192kbps - двухголосый (DVD R5 - 2000 "Twister", VHS - 2001 "Гемини")
Язык : Russian
Default : Нет
Forced : Нет
Аудио #3
Идентификатор : 4
Формат : AC-3
Формат/Информация : Audio Coding 3
Расширение режима : CM (complete main)
Параметр Endianness формата : Big
Идентификатор кодека : A_AC3
Продолжительность : 2 ч. 0 м.
Вид битрейта : Постоянный
Битрейт : 192 Кбит/сек
Каналы : 2 канала
Расположение каналов : Front: L R
Частота : 48,0 КГц
Битовая глубина : 16 бит
Метод сжатия : С потерями
Размер потока : 166 Мбайт (1%)
Заголовок : AC3 2.0ch 192kbps - одноголосый (Гаврилов - DVD.NTSC)
Язык : Russian
Default : Нет
Forced : Нет
Аудио #4
Идентификатор : 5
Формат : AC-3
Формат/Информация : Audio Coding 3
Расширение режима : CM (complete main)
Параметр Endianness формата : Big
Идентификатор кодека : A_AC3
Продолжительность : 2 ч. 0 м.
Вид битрейта : Постоянный
Битрейт : 192 Кбит/сек
Каналы : 2 канала
Расположение каналов : Front: L R
Частота : 48,0 КГц
Битовая глубина : 16 бит
Метод сжатия : С потерями
Размер потока : 166 Мбайт (1%)
Заголовок : AC3 2.0ch 192kbps - одноголосый (Горчаков - DVD.NTSC)
Язык : Russian
Default : Нет
Forced : Нет
Аудио #5
Идентификатор : 6
Формат : DTS
Формат/Информация : Digital Theater Systems
Профиль формата : MA / Core
Режим : 16
Параметр Endianness формата : Big
Идентификатор кодека : A_DTS
Продолжительность : 2 ч. 0 м.
Вид битрейта : Переменный
Битрейт : Неизвестно / 1509 Кбит/сек
Каналы : 2 канала
Расположение каналов : Front: L R
Частота : 48,0 КГц
Битовая глубина : 24 бит
Метод сжатия : Без потерь / Lossy
Заголовок : DTS-HD Master Audio | 48 kHz | 2108 kbps | 24-bit (DTS Core: 2.0 | 48 kHz | 1509 kbps | 24-bit)
Язык : English
Default : Нет
Forced : Нет
Текст #1
Идентификатор : 7
Формат : UTF-8
Идентификатор кодека : S_TEXT/UTF8
Идентификатор кодека/Информация : UTF-8 Plain Text
Язык : Russian
Default : Нет
Forced : Нет
Текст #2
Идентификатор : 8
Формат : UTF-8
Идентификатор кодека : S_TEXT/UTF8
Идентификатор кодека/Информация : UTF-8 Plain Text
Язык : English
Default : Нет
Forced : Нет
Меню
00:00:00.000 : en:Chapter 1
00:12:13.107 : en:Chapter 2
00:21:45.429 : en:Chapter 3
00:30:44.551 : en:Chapter 4
00:40:55.745 : en:Chapter 5
00:52:59.426 : en:Chapter 6
01:02:30.455 : en:Chapter 7
01:11:58.648 : en:Chapter 8
01:20:55.100 : en:Chapter 9
01:31:56.094 : en:Chapter 10
01:41:08.980 : en:Chapter 11
01:50:49.017 : en:Chapter 12
01:57:02.432 : en:Chapter 13

-

Интересное

Экранизация произведения Джона Гришема «Клиент».
Картина имела финансовый успех, собрав 92 115 211 долларов в своей стране и ещё 25 500 000 долларов за рубежом.
Джон Гришэм, автор книги, настаивал, чтобы роль Марка Свэя исполнял не профессиональный актёр. Брэд Рэнфро обошёл на пробах тысячи претендентов, включая Маколея Калкина. В возрасте 25 лет Рэнфро скончался от передозировки героина.
За свою работу в фильме Сьюзан Сарандон в 1995 году награждена премией BAFTA за лучшую женскую роль, а также за лучшую женскую роль номинирована на премию «Оскар» и премию Гильдии актеров.
Скачать

Скачать торрент!

Как скачивать? · Что такое торрент? · Рейтинг и ограничения

Сайт не распространяет и не хранит электронные версии произведений, а лишь предоставляет доступ к создаваемому пользователями каталогу ссылок на торрент-файлы, которые содержат только списки хеш-сумм

[Профиль] [ЛС]
Показать сообщения:    
Ответить на тему

Текущее время: Сегодня 04:18

Часовой пояс: GMT + 4



Вы не можете начинать темы
Вы не можете отвечать на сообщения
Вы не можете редактировать свои сообщения
Вы не можете удалять свои сообщения
Вы не можете голосовать в опросах
Вы не можете прикреплять файлы к сообщениям
Вы не можете скачивать файлы