Фантом / Phantom (Тодд Робинсон / Todd Robinson) [2013, США, триллер, HDRip] MVO

Ответить на тему
 
Автор Сообщение

user ®

Стаж: 7 лет 7 месяцев

Сообщений: 20008

Пост Пост: #1 от 23-Ноя-2013 18:15

[Цитировать]

ФантомPhantom«You'll never see it coming»- Страна: США
Жанр: триллер
Год выпуска: 2013
Продолжительность: 01:38:28-Перевод: Профессиональный (многоголосый, закадровый) [лицензия]
Субтитры: нет
Режиссер: Тодд Робинсон / Todd Robinson
В ролях: Эд Харрис, Дэвид Духовны, Уильям Фихтнер, Лэнс Хенриксен, Джонатон Шек, Джейсон Бех, Дагмара Доминчук, Дерек Магияр, Шон Патрик Флэнери, Джейсон Грей-Стенфорд, Джулиан Адамс, Кип Парду-Описание: Капитан советской подводной лодки держит в своих руках судьбу всего мира. Вынужденному покинуть свою семью, ему приходится возглавить секретную миссию окутанную тайной...-


MPAA: R - Лицам до 17 лет обязательно присутствие взрослого-

Доп. Информация

Сценарий: Тодд Робинсон / Todd Robinson
Продюсер: Джулиан Адамс / Julian Adams, Джон Уотсон / John Watson, Пен Деншэм / Pen Densham, Рикардо Коста Реис / Ricardo Costa Reis, Руй Хорхе Тейшейра Да Коста Реис / Rui Costa Reis
Оператор: Байрон Вернер / Byron Werner
Композитор: Джеф Рона / Jeff Rona
Бюджет: $18 000 000
Сборы в США: $1 034 589
Мировая премьера: 1 марта 2013
Релиз на DVD: 6 февраля 2014,
«Двадцатый Век Фокс СНГ»
-Качество: HDRip (Исходник BDRip 1080p)
Контейнер: AVI
Видео: XviD, 720x304 (2.35:1), 1724 kbps, 23,976 fps, 0,329 bpp
Аудио: AC3 / 5.1 / 48 kHz / 384 kbps / 16 bit-

Media Info

General
Complete name : G:\Fantom.2013.P_HDRip.avi
Format : AVI
Format/Info : Audio Video Interleave
File size : 1.46 GiB
Duration : 1h 38mn
Overall bit rate : 2 118 Kbps
Writing application : VirtualDubMod 1.5.10.3 | www.virtualdub-fr.org || (build 2550/release)
Writing library : VirtualDubMod build 2550/release
Video
ID : 0
Format : MPEG-4 Visual
Format profile : Advanced Simple@L5
Format settings, BVOP : 1
Format settings, QPel : No
Format settings, GMC : No warppoints
Format settings, Matrix : Custom
Codec ID : XVID
Codec ID/Hint : XviD
Duration : 1h 38mn
Bit rate : 1 725 Kbps
Width : 720 pixels
Height : 304 pixels
Display aspect ratio : 2.35:1
Frame rate : 23.976 fps
Color space : YUV
Chroma subsampling : 4:2:0
Bit depth : 8 bits
Scan type : Progressive
Compression mode : Lossy
Bits/(Pixel*Frame) : 0.329
Stream size : 1.19 GiB (81%)
Writing library : XviD 1.2.1 (UTC 2008-12-04)
Audio
ID : 1
Format : AC-3
Format/Info : Audio Coding 3
Mode extension : CM (complete main)
Codec ID : 2000
Duration : 1h 38mn
Bit rate mode : Constant
Bit rate : 384 Kbps
Channel(s) : 6 channels
Channel positions : Front: L C R, Side: L R, LFE
Sampling rate : 48.0 KHz
Bit depth : 16 bits
Compression mode : Lossy
Stream size : 270 MiB (18%)
Alignment : Split accross interleaves
Interleave, duration : 42 ms (1.00 video frame)
Interleave, preload duration : 500 ms

Скриншот с названием фильма

Скриншоты

Скачать

Скачать торрент!

Как скачивать? · Что такое торрент? · Рейтинг и ограничения

Сайт не распространяет и не хранит электронные версии произведений, а лишь предоставляет доступ к создаваемому пользователями каталогу ссылок на торрент-файлы, которые содержат только списки хеш-сумм

[Профиль] [ЛС]
Показать сообщения:    
Ответить на тему

Текущее время: Сегодня 02:17

Часовой пояс: GMT + 4



Вы не можете начинать темы
Вы не можете отвечать на сообщения
Вы не можете редактировать свои сообщения
Вы не можете удалять свои сообщения
Вы не можете голосовать в опросах
Вы не можете прикреплять файлы к сообщениям
Вы не можете скачивать файлы