Северо-запад / Nordvest (Михаэль Ноер / Michael Noer) [2013, Дания, боевик, драма, криминал, HDRip] AVO

Ответить на тему
 
Автор Сообщение

user ®

Стаж: 7 лет 7 месяцев

Сообщений: 20008

Пост Пост: #1 от 23-Ноя-2013 18:15

[Цитировать]

Северо-запад / Nordvest
Страна: Дания
Жанр: боевик, драма, криминал
Год выпуска: 2013
Продолжительность: 01:30:24
Перевод: Авторский (одноголосый закадровый) [Антон Алексеев]
Cубтитры: нет
Оригинальная аудиодорожка: нет
Режиссер: Михаэль Ноер / Michael Noer
В ролях: Густав Дюэкьер Гис, Оскар Дюэкьер Гис, Лене Мария Кристенсен, Аннамики Бредал Пепинк, Николас Вествуд Кидд, Роланд Мюллер, Дульфи Аль-Джабури, Клемент Блэк Петерсен
Описание: Северо-запад Копенгагена является одним из самых бедных и многонациональных районов города. 18-летний Каспер живет здесь со своей матерью, младшим братом и маленькой сестрой. Чтобы свести концы с концами, он вместе со своим другом Робином совершает мелкие кражи из домов, сбывая краденое местному главарю Джамалу, контролирующему небольшую банду в этом районе. Но амбициозный Каспер не хочет, рискуя собой, зависеть от него, рыская ночью по домам за те небольшие наличные, которые он платит взамен. После встречи с Бьорном, одним из лидеров организованной преступной группировки, он соглашается работать на него, понимая, что это поможет подняться ему на совершенно иной, новый уровень в уголовной иерархии криминального мира. Поначалу все идет гладко, пока Джамал и банда не решают отомстить ему, воспринимая его уход как предательство, что неминуемо приведет к вооруженной схватке.Это становится главным испытанием в жизни Каспера: достаточно ли он безжалостен для этого столкновения, сможет ли он защитить брата, невольно подтолкнув его к совершению преступления, и захочет ли сам выбраться из этого преступного мира?
Сэмпл: http://multi-up.com/925994
Качество видео: HDRip
Формат видео: AVI
Видео: 720x384,24 fps,XviD build 50,1706 kbps avg,0.26 bit/pixel
Аудио: 48 kHz,AC3 Dolby Digital,3/2 (L,C,R,l,r) + LFE ch,448 kbps

MediaInfo

Общее
Полное имя : C:\Users\PC\Downloads\The.Starving.Games.L1.HDRip.avi
Формат : AVI
Формат/Информация : Audio Video Interleave
Размер файла : 1,44 Гбайт
Продолжительность : 1 ч. 22 м.
Общий поток : 2497 Кбит/сек
Программа кодирования : VirtualDubMod 1.5.10.3 | www.virtualdub-fr.org
Библиотека кодирования : VirtualDubMod build 2550/release
Видео
Идентификатор : 0
Формат : MPEG-4 Visual
Профиль формата : Advanced Simple@L5
Параметр BVOP формата : 1
Параметр QPel формата : Нет
Параметр GMC формата : Без точки перехода
Параметр матрицы формата : Выборочная
Идентификатор кодека : XVID
Идентификатор кодека/Подсказка : XviD
Продолжительность : 1 ч. 22 м.
Битрейт : 2040 Кбит/сек
Ширина : 704 пикселя
Высота : 384 пикселя
Соотношение сторон : 1,85:1
Частота кадров : 23,976 кадра/сек
Цветовое пространство : YUV
Субдискретизация насыщенности : 4:2:0
Битовая глубина : 8 бит
Тип развёртки : Прогрессивная
Метод сжатия : С потерями
Бит/(Пиксели*Кадры) : 0.315
Размер потока : 1,17 Гбайт (82%)
Библиотека кодирования : XviD 73
Аудио
Идентификатор : 1
Формат : AC-3
Формат/Информация : Audio Coding 3
Расширение режима : CM (complete main)
Параметр Endianness формата : Big
Идентификатор кодека : 2000
Продолжительность : 1 ч. 22 м.
Вид битрейта : Постоянный
Битрейт : 448 Кбит/сек
Каналы : 6 каналов
Расположение каналов : Front: L C R, Side: L R, LFE
Частота : 48,0 КГц
Битовая глубина : 16 бит
Метод сжатия : С потерями
Размер потока : 264 Мбайт (18%)
Выравнивание : Разделение по промежуткам
Продолжительность промежутка : 42 мс. (1,00 видеокадр)
Время предзагрузки промежутка : 500 мс.

Скриншот c названием фильма

Скриншоты

Скачать

Скачать торрент!

Как скачивать? · Что такое торрент? · Рейтинг и ограничения

Сайт не распространяет и не хранит электронные версии произведений, а лишь предоставляет доступ к создаваемому пользователями каталогу ссылок на торрент-файлы, которые содержат только списки хеш-сумм

[Профиль] [ЛС]
Показать сообщения:    
Ответить на тему

Текущее время: Сегодня 01:45

Часовой пояс: GMT + 4



Вы не можете начинать темы
Вы не можете отвечать на сообщения
Вы не можете редактировать свои сообщения
Вы не можете удалять свои сообщения
Вы не можете голосовать в опросах
Вы не можете прикреплять файлы к сообщениям
Вы не можете скачивать файлы