Добро пожаловать в капкан / Welcome to the Punch (Эрен Криви / Eran Creevy) [2013, Великобритания, США, боевик, триллер, криминал, BDRip] AVO (Дольский) + Subs (Rus, Eng) + Original (Eng)

Ответить на тему
 
Автор Сообщение

user ®

Стаж: 7 лет 7 месяцев

Сообщений: 20008

Пост Пост: #1 от 23-Ноя-2013 12:40

[Цитировать]

Добро пожаловать в капкан / Welcome to the Punch- Страна: Великобритания, США | Worldview Entertainment, Between The Eyes, Automatik Entertainment
Жанр: боевик, триллер, криминал
Год выпуска: 2013
Продолжительность: 01:39:47-Перевод: Авторский (одноголосый закадровый) А.Дольский
+ Оригинал (английский)
Cубтитры: Русские (Janetta), английские (внешние srt*)-Режиссер: Эрен Криви / Eran Creevy
В ролях: Джеймс МакЭвой, Марк Стронг, Андреа Райзборо, Дэвид Моррисси, Питер Муллан, Джейсон Флеминг, Элайес Габел, Дэниэл Калуя, Дэниэл Мейс, Джонни Харрисел Дэниэл Калуя Дэниэл Мейс Джонни Харрис- -Описание: Бывший преступник Джейкоб Стернбуд вынужден вернуться в Лондон из своего убежища, когда его сын вовлечен в ограбление пошедшее не так. У детектива Макса Левински появляется шанс поймать человека, которому всегда удавалось уйти. Соперники снова меряются силами, но они сталкиваются с более глубоким преступным заговором, с которым вынуждены бороться, чтобы выжить.-Качество видео: BDRip | исх. Blu-ray Disc / 1080p | Сэмпл
Автор рипа: kingsize87-Формат видео: AVI-Видео: 720x304 (2.37:1), 23.976 fps, XviD build 65 ~2230 kbps avg, 0.42 bit/pixel
Аудио 1: 48 kHz, AC3 Dolby Digital, 3/2 (L,C,R,l,r) + LFE ch, ~448.00 kbps avg | Авторский (одноголосый закадровый) А.Дольский
Аудио 2: 48 kHz, AC3 Dolby Digital, 3/2 (L,C,R,l,r) + LFE ch, ~448.00 kbps avg | Оригинал (английский)-

MediaInfo


General
Complete name : D:\Фильмы\Dobro.pozhalovat.v.kapkan.2013.DUAL.BDRip.XviD.AC3.-HQCLUB\Dobro.pozhalovat.v.kapkan.2013.DUAL.BDRip.XviD.AC3.-HQCLUB.avi
Format : AVI
Format/Info : Audio Video Interleave
Format profile : OpenDML
File size : 2.18 GiB
Duration : 1h 39mn
Overall bit rate : 3 133 Kbps
Movie name : Добро пожаловать в капкан / Добро пожаловать в Панч / Welcome to the Punch (2013) BDRip
Director : kingsize87
Writing application : VirtualDubMod 1.5.10.2 (build 2540/release)
Copyright : HQCLUB
Comment : 10.10.2013
Video
ID : 0
Format : MPEG-4 Visual
Format profile : Advanced Simple@L5
Format settings, BVOP : 1
Format settings, QPel : No
Format settings, GMC : No warppoints
Format settings, Matrix : Custom
Codec ID : XVID
Codec ID/Hint : XviD
Duration : 1h 39mn
Bit rate : 2 219 Kbps
Width : 720 pixels
Height : 304 pixels
Display aspect ratio : 2.35:1
Frame rate : 23.976 fps
Color space : YUV
Chroma subsampling : 4:2:0
Bit depth : 8 bits
Scan type : Progressive
Compression mode : Lossy
Bits/(Pixel*Frame) : 0.423
Stream size : 1.55 GiB (71%)
Writing library : XviD 65
Audio #1
ID : 1
Format : AC-3
Format/Info : Audio Coding 3
Mode extension : CM (complete main)
Format settings, Endianness : Big
Codec ID : 2000
Duration : 1h 39mn
Bit rate mode : Constant
Bit rate : 448 Kbps
Channel(s) : 6 channels
Channel positions : Front: L C R, Side: L R, LFE
Sampling rate : 48.0 KHz
Bit depth : 16 bits
Compression mode : Lossy
Stream size : 320 MiB (14%)
Alignment : Split accross interleaves
Interleave, duration : 42 ms (1.00 video frame)
Interleave, preload duration : 500 ms
Audio #2
ID : 2
Format : AC-3
Format/Info : Audio Coding 3
Mode extension : CM (complete main)
Format settings, Endianness : Big
Codec ID : 2000
Duration : 1h 39mn
Bit rate mode : Constant
Bit rate : 448 Kbps
Channel(s) : 6 channels
Channel positions : Front: L C R, Side: L R, LFE
Sampling rate : 48.0 KHz
Bit depth : 16 bits
Compression mode : Lossy
Stream size : 320 MiB (14%)
Alignment : Split accross interleaves
Interleave, duration : 42 ms (1.00 video frame)
Interleave, preload duration : 500 ms

Скриншоты

Скачать

Скачать торрент!

Как скачивать? · Что такое торрент? · Рейтинг и ограничения

Сайт не распространяет и не хранит электронные версии произведений, а лишь предоставляет доступ к создаваемому пользователями каталогу ссылок на торрент-файлы, которые содержат только списки хеш-сумм

[Профиль] [ЛС]
Показать сообщения:    
Ответить на тему

Текущее время: Сегодня 20:21

Часовой пояс: GMT + 4



Вы не можете начинать темы
Вы не можете отвечать на сообщения
Вы не можете редактировать свои сообщения
Вы не можете удалять свои сообщения
Вы не можете голосовать в опросах
Вы не можете прикреплять файлы к сообщениям
Вы не можете скачивать файлы