Фантом / Phantom (Тодд Робинсон / Todd Robinson) [2013, Триллер, BDRip-AVC] MVO + Sub (rus., eng.)

Ответить на тему
 
Автор Сообщение

user ®

Стаж: 7 лет 7 месяцев

Сообщений: 20008

Пост Пост: #1 от 23-Ноя-2013 09:30

[Цитировать]

Фантом / Phantom- Страна: США / Trilogy Entertainment Group, Solar Filmworks LLC, RCR Media Group
Жанр: Триллер
Год выпуска: 2013
Продолжительность: 01:38:22-Перевод: Профессиональный (многоголосый закадровый) лицензия
Cубтитры: русские, английские
Формат субтитров: softsub (SRT)
Оригинальная аудиодорожка: нет-Режиссер: Тодд Робинсон / Todd Robinson
В ролях: Эд Харрис Дэвид Духовны Уильям Фихтнер Лэнс Хенриксен Джонатон Шек Джейсон Бех Дагмара Доминчук Дерек Магияр Шон Патрик Флэнери Джейсон Грей-Стенфорд
Описание: Капитан советской подводной лодки держит в своих руках судьбу всего мира. Вынужденному покинуть свою семью, ему приходится возглавить секретную миссию окутанную тайной…-
Релиз от:
Автор рипа: potroks-Качество видео: BDRip-AVC [Phantom.2013.1080p.BluRay.AVC.DTS-HD.MA.5.1-PublicHD]
Формат видео: MKV
Видео: х.264, 972x414 (2.35:1), 23,976 fps, 1675 Кbps, 0.174 bit/pixel
Аудио: 48 kHz, AC3 Dolby Digital, 3/2 (L,C,R,l,r) + LFE ch, 384.00 kbps

MediaInfo

Общее
Уникальный идентификатор : 171983192453501908222945745713423810123 (0x8162C20E1B50F47C9EA6FBEC95B17E4B)
Полное имя : Fantom.2013.RUS.BDRip.x264.-HELLYWOOD.mkv
Формат : Matroska
Версия формата : Version 4 / Version 2
Размер файла : 1,42 Гбайт
Продолжительность : 1 ч. 38 м.
Общий поток : 2059 Кбит/сек
Название фильма : HELLYWOOD - rip by potroks
Дата кодирования : UTC 2013-11-22 16:56:52
Программа кодирования : mkvmerge v5.9.0 ('On The Loose') built on Dec 15 2012 16:39:58
Библиотека кодирования : libebml v1.3.0 + libmatroska v1.4.0
Видео
Идентификатор : 1
Формат : AVC
Формат/Информация : Advanced Video Codec
Профиль формата : High@L4.1
Параметр CABAC формата : Да
Параметр ReFrames формата : 12 кадров
Идентификатор кодека : V_MPEG4/ISO/AVC
Продолжительность : 1 ч. 38 м.
Битрейт : 1675 Кбит/сек
Ширина : 972 пикселя
Высота : 414 пикселей
Соотношение сторон : 2,35:1
Режим частоты кадров : Постоянный
Частота кадров : 23,976 кадра/сек
Цветовое пространство : YUV
Субдискретизация насыщенности : 4:2:0
Битовая глубина : 8 бит
Тип развёртки : Прогрессивная
Бит/(Пиксели*Кадры) : 0.174
Размер потока : 1,12 Гбайт (79%)
Заголовок : Fantom
Библиотека кодирования : x264 core 125 r2208 d9d2288
Настройки программы : cabac=1 / ref=12 / deblock=1:-3:-2 / analyse=0x3:0x133 / me=umh / subme=11 / psy=1 / psy_rd=1.02:0.00 / mixed_ref=1 / me_range=48 / chroma_me=1 / trellis=2 / 8x8dct=1 / cqm=0 / deadzone=21,11 / fast_pskip=0 / chroma_qp_offset=-2 / threads=9 / lookahead_threads=1 / sliced_threads=0 / nr=0 / decimate=1 / interlaced=0 / bluray_compat=0 / constrained_intra=0 / bframes=13 / b_pyramid=2 / b_adapt=2 / b_bias=0 / direct=3 / weightb=1 / open_gop=0 / weightp=2 / keyint=240 / keyint_min=23 / scenecut=40 / intra_refresh=0 / rc_lookahead=100 / rc=2pass / mbtree=1 / bitrate=1675 / ratetol=1.0 / qcomp=0.70 / qpmin=0 / qpmax=69 / qpstep=4 / cplxblur=20.0 / qblur=0.5 / vbv_maxrate=20000 / vbv_bufsize=20000 / nal_hrd=none / ip_ratio=1.35 / aq=1:0.80
Язык : English
Default : Да
Forced : Нет
Аудио
Идентификатор : 2
Формат : AC-3
Формат/Информация : Audio Coding 3
Расширение режима : CM (complete main)
Параметр Endianness формата : Big
Идентификатор кодека : A_AC3
Продолжительность : 1 ч. 38 м.
Вид битрейта : Постоянный
Битрейт : 384 Кбит/сек
Каналы : 6 каналов
Расположение каналов : Front: L C R, Side: L R, LFE
Частота : 48,0 КГц
Битовая глубина : 16 бит
Метод сжатия : С потерями
Размер потока : 270 Мбайт (19%)
Заголовок : MVO | DD 5.1 @ 384 kbps
Язык : Russian
Default : Да
Forced : Да
Текст #1
Идентификатор : 3
Формат : UTF-8
Идентификатор кодека : S_TEXT/UTF8
Идентификатор кодека/Информация : UTF-8 Plain Text
Язык : Russian
Default : Нет
Forced : Нет
Текст #2
Идентификатор : 4
Формат : UTF-8
Идентификатор кодека : S_TEXT/UTF8
Идентификатор кодека/Информация : UTF-8 Plain Text
Язык : English
Default : Нет
Forced : Нет
Меню
00:00:00.000 : en:00:00:00.000
00:03:47.144 : en:00:03:47.144
00:08:23.336 : en:00:08:23.336
00:11:38.072 : en:00:11:38.072
00:16:00.334 : en:00:16:00.334
00:19:33.381 : en:00:19:33.381
00:24:57.913 : en:00:24:57.913
00:27:55.716 : en:00:27:55.716
00:31:39.064 : en:00:31:39.064
00:37:07.976 : en:00:37:07.976
00:42:37.722 : en:00:42:37.722
00:47:16.834 : en:00:47:16.834
00:51:54.486 : en:00:51:54.486
00:56:09.825 : en:00:56:09.825
00:59:47.793 : en:00:59:47.793
01:03:51.661 : en:01:03:51.661
01:07:53.236 : en:01:07:53.236
01:10:04.158 : en:01:10:04.158
01:13:33.492 : en:01:13:33.492
01:16:47.311 : en:01:16:47.311
01:20:48.844 : en:01:20:48.844
01:24:20.806 : en:01:24:20.806
01:26:20.050 : en:01:26:20.050
01:30:17.579 : en:01:30:17.579

Скриншоты

Скачать

Скачать торрент!

Как скачивать? · Что такое торрент? · Рейтинг и ограничения

Сайт не распространяет и не хранит электронные версии произведений, а лишь предоставляет доступ к создаваемому пользователями каталогу ссылок на торрент-файлы, которые содержат только списки хеш-сумм

[Профиль] [ЛС]
Показать сообщения:    
Ответить на тему

Текущее время: Сегодня 02:17

Часовой пояс: GMT + 4



Вы не можете начинать темы
Вы не можете отвечать на сообщения
Вы не можете редактировать свои сообщения
Вы не можете удалять свои сообщения
Вы не можете голосовать в опросах
Вы не можете прикреплять файлы к сообщениям
Вы не можете скачивать файлы