Говорит и показывает Бомбей / Bombay Talkies (Каран Джохар / Karan Johar, Зоя Акхтар / Zoya Akhtar, Анураг Кашьяп / Anurag Kashyap, Дибакар Банерджи / Dibakar Banerjee) [2013, Индия, Мелодрама, DVDRip] Sub Rus (Tarahb)

Ответить на тему
 
Автор Сообщение

user ®

Стаж: 12 лет

Сообщений: 15092

Пост Пост: #1 от 23-Ноя-2013 03:10

[Цитировать]

Говорит и показывает Бомбей / Bombay Talkies
Страна: Индия
Жанр: Мелодрама
Год выпуска: 2013
Продолжительность: 02:06:12
Перевод: Субтитры (Tarahb)
Cубтитры: русские
Оригинальная аудиодорожка: Хинди
Режиссеры: Каран Джохар / Karan Johar, Зоя Акхтар / Zoya Akhtar, Анураг Кашьяп / Anurag Kashyap, Дибакар Банерджи / Dibakar Banerjee
В ролях: Амитабх Баччан, Рани Мукхерджи, Катрина Каиф, Ранвир Шорей, Рандип Худа, Сакиб Салим, Навазудин Сиддики, Винит Кумар Сингх, Садашив Амрапуркар, Наман Джайн
Спец. приглашенные звёзды: Аамир Кхан, Шахрукх Кхан, Саиф Али Кхан, Мадхури Дикшит,
Каришма Капур, Акшай Кумар, Джухи Чавла, Шридеви, Приянка Чопра, Фархан Ахтар, Имран Кхан,
Видья Балан, Карина Капур, Ранбир Капур, Анил Капур, Шахид Капур, Дипика Падукон, Сонам Капур, Ранвир Сингх
Описание: Фильм знаменует собой завершение 100-тия индийского кино и начало новой эры современного индийского кино. Фильм состоит из четырех короткометражных фильмов от режиссеров: Каран Джохара, Зои Акхтар, Анураг Кашьяпа и Дибакара Банерджи. Таких разных историй - непохожих, неожиданных и трогающих ваши сердца, но всех их связывает одно – любовь к индийскому кино, его музыке, верность свои кумирам. Как кино легко вплетается в нашу жизнь и становится не просто увлечением, а стилем и смыслом жизни.
Качество видео: DVDRip
Формат видео: AVI
Видео: Xvid, 704x304 pixel, 29,97 fps, 1860 kbps
Аудио: AC3, 48 kHz, 5.1 (6 сh), 448 kbps
Формат субтитров: hardsub (неотключаемые)
Сэмпл: http://multi-up.com/925476

MediaInfo

Формат : AVI
Формат/Информация : Audio Video Interleave
Профиль формата : OpenDML
Размер файла : 2,05 Гбайт
Продолжительность : 2 ч. 6 м.
Общий поток : 2320 Кбит/сек
Программа кодирования : VirtualDubMod 1.5.10.2 (build 2542/release)
Библиотека кодирования : VirtualDubMod build 2542/release
Видео
Идентификатор : 0
Формат : MPEG-4 Visual
Профиль формата : Advanced Simple@L5
Параметр BVOP формата : 1
Параметр QPel формата : Нет
Параметр GMC формата : Без точки перехода
Параметр матрицы формата : Default (H.263)
Режим смешивания : Сжатый битовый поток
Идентификатор кодека : XVID
Идентификатор кодека/Подсказка : XviD
Продолжительность : 2 ч. 6 м.
Битрейт : 1860 Кбит/сек
Ширина : 704 пикселя
Высота : 304 пикселя
Соотношение сторон : 2,35:1
Частота кадров : 29,970 кадров/сек
Цветовое пространство : YUV
Субдискретизация насыщенности : 4:2:0
Битовая глубина : 8 бит
Тип развёртки : Прогрессивная
Метод сжатия : С потерями
Бит/(Пиксели*Кадры) : 0.290
Размер потока : 1,64 Гбайт (80%)
Библиотека кодирования : XviD 1.2.1 (UTC 2008-12-04)
Аудио
Идентификатор : 1
Формат : AC-3
Формат/Информация : Audio Coding 3
Расширение режима : CM (complete main)
Идентификатор кодека : 2000
Продолжительность : 2 ч. 6 м.
Вид битрейта : Постоянный
Битрейт : 448 Кбит/сек
Каналы : 6 каналов
Расположение каналов : Front: L C R, Side: L R, LFE
Частота : 48,0 КГц
Битовая глубина : 16 бит
Метод сжатия : С потерями
Размер потока : 404 Мбайт (19%)
Выравнивание : Разделение по промежуткам
Продолжительность промежутка : 64 мс. (1,92 видеокадра)
Время предзагрузки промежутка : 500 мс.

Скриншот c названием фильма

Скриншоты

Скачать

Скачать торрент! Говорит и показывает Бомбей / Bombay Talkies (Каран Джохар / Karan Johar, Зоя Акхтар / Zoya Akhtar, Анураг Кашьяп / Anurag Kashyap, Дибакар Банерджи / Dibakar Banerjee) [2013, Индия, Мелодрама, DVDRip] Sub Rus (Tarahb)

Как скачивать? · Что такое торрент? · Рейтинг и ограничения

Сайт не распространяет и не хранит электронные версии произведений, а лишь предоставляет доступ к создаваемому пользователями каталогу ссылок на торрент-файлы, которые содержат только списки хеш-сумм

[Профиль] [ЛС]
Показать сообщения:    
Ответить на тему

Текущее время: Сегодня 06:00

Часовой пояс: GMT + 4



Вы не можете начинать темы
Вы не можете отвечать на сообщения
Вы не можете редактировать свои сообщения
Вы не можете удалять свои сообщения
Вы не можете голосовать в опросах
Вы не можете прикреплять файлы к сообщениям
Вы не можете скачивать файлы