Одноклассники 2 / Grown Ups 2 (Деннис Дуган / Dennis Dugan) [2013, США, комедия, BDRip] Dub + Original + subs (Rus, RusF, Eng)

Ответить на тему
 
Автор Сообщение

user ®

Стаж: 7 лет 7 месяцев

Сообщений: 20008

Пост Пост: #1 от 23-Ноя-2013 03:10

[Цитировать]

Одноклассники 2 / Grown Ups 2- Год выпуска: 2013
Выпущено: США
Жанр: комедия
Продолжительность: 01:40:58
Перевод: Профессиональный (полное дублирование) + Оригинальная звуковая дорожка
Субтитры: Русские (полные, форсированные), Английские (внешние srt*)-Режиссер: Деннис Дуган / Dennis Dugan
В ролях: Адам Сэндлер, Кевин Джеймс, Крис Рок, Дэвид Спейд, Сальма Хайек, Майя Рудольф, Мария Белло, Ник Свардсон, Александр Людвиг, Колин Куинн
О фильме: После того как Ленни Федер переезжает с семьей обратно в родной город, он и его друзья извлекут немало уроков, когда их дети окончат школу...-Релиз:
Автор: kingsize87
Качество: BDRip (источник: / Blu-Ray CEE / 1080р)
Формат: AVI
Видео: 704x384 (1.83:1), 23.976 fps, XviD build 65 ~2194 kbps avg, 0.34 bit/pixel
Аудио #1: 48 kHz, AC3 Dolby Digital, 3/2 (L,C,R,l,r) + LFE ch, ~448.00 kbps avg rus
Аудио #2: 48 kHz, AC3 Dolby Digital, 3/2 (L,C,R,l,r) + LFE ch, ~448.00 kbps avg eng
Размер: 2236.41 Mb (1/2 DVD-R)
Скачать: Семпл-

Кадры из фильма


-

Mi


Формат : AVI
Формат/Информация : Audio Video Interleave
Профиль формата : OpenDML
Размер файла : 2,18 Гбайт
Продолжительность : 1 ч. 40 м.
Общий поток : 3097 Кбит/сек
Название фильма : Одноклассники 2 / Grown Ups 2 (2013) BDRip
Режиссёр : kingsize87
Программа кодирования : VirtualDubMod 1.5.10.2 (build 2540/release)
Правообладатель : HQCLUB
Примечание : 22.11.2013
Видео
Идентификатор : 0
Формат : MPEG-4 Visual
Профиль формата : Advanced Simple@L5
Параметр BVOP формата : 1
Параметр QPel формата : Нет
Параметр GMC формата : Без точки перехода
Параметр матрицы формата : Выборочная
Идентификатор кодека : XVID
Идентификатор кодека/Подсказка : XviD
Продолжительность : 1 ч. 40 м.
Битрейт : 2183 Кбит/сек
Ширина : 704 пикселя
Высота : 384 пикселя
Соотношение сторон : 1,85:1
Частота кадров : 23,976 кадра/сек
Цветовое пространство : YUV
Субдискретизация насыщенности : 4:2:0
Битовая глубина : 8 бит
Тип развёртки : Прогрессивная
Метод сжатия : С потерями
Бит/(Пиксели*Кадры) : 0.337
Размер потока : 1,54 Гбайт (70%)
Библиотека кодирования : XviD 65
Аудио #1
Идентификатор : 1
Формат : AC-3
Формат/Информация : Audio Coding 3
Расширение режима : CM (complete main)
Параметр Endianness формата : Big
Идентификатор кодека : 2000
Продолжительность : 1 ч. 40 м.
Вид битрейта : Постоянный
Битрейт : 448 Кбит/сек
Каналы : 6 каналов
Расположение каналов : Front: L C R, Side: L R, LFE
Частота : 48,0 КГц
Битовая глубина : 16 бит
Метод сжатия : С потерями
Размер потока : 324 Мбайт (14%)
Выравнивание : Разделение по промежуткам
Продолжительность промежутка : 42 мс. (1,00 видеокадр)
Время предзагрузки промежутка : 500 мс.
Аудио #2
Идентификатор : 2
Формат : AC-3
Формат/Информация : Audio Coding 3
Расширение режима : CM (complete main)
Параметр Endianness формата : Big
Идентификатор кодека : 2000
Продолжительность : 1 ч. 40 м.
Вид битрейта : Постоянный
Битрейт : 448 Кбит/сек
Каналы : 6 каналов
Расположение каналов : Front: L C R, Side: L R, LFE
Частота : 48,0 КГц
Битовая глубина : 16 бит
Метод сжатия : С потерями
Размер потока : 324 Мбайт (14%)
Выравнивание : Разделение по промежуткам
Продолжительность промежутка : 42 мс. (1,00 видеокадр)
Время предзагрузки промежутка : 500 мс.
-
Скачать

Скачать торрент!

Как скачивать? · Что такое торрент? · Рейтинг и ограничения

Сайт не распространяет и не хранит электронные версии произведений, а лишь предоставляет доступ к создаваемому пользователями каталогу ссылок на торрент-файлы, которые содержат только списки хеш-сумм

[Профиль] [ЛС]
Показать сообщения:    
Ответить на тему

Текущее время: Сегодня 06:30

Часовой пояс: GMT + 4



Вы не можете начинать темы
Вы не можете отвечать на сообщения
Вы не можете редактировать свои сообщения
Вы не можете удалять свои сообщения
Вы не можете голосовать в опросах
Вы не можете прикреплять файлы к сообщениям
Вы не можете скачивать файлы