Лиззи / Lizzie (Дэвид Данн мл. / David Dunn Jr.) [2013, США, триллер, HDRip] DVO (DeadSno & den904) + Original (Ger)

Ответить на тему
 
Автор Сообщение

user ®

Стаж: 7 лет 7 месяцев

Сообщений: 20008

Пост Пост: #1 от 22-Ноя-2013 15:15

[Цитировать]

ЛиззиLizzie- Страна: США
Жанр: триллер
Год выпуска: 2013
Продолжительность: 01:26:10-Перевод: Любительский (двухголосый)[DeadSno & den904]
Оригинальная аудиодорожка: немецкий
Субтитры: нет
Режиссер: Дэвид Данн мл. / David Dunn Jr.
В ролях: Аманда Бэйкер, Лейф Холт, Корбин Бернсен, Кэйтлин Кармайкл, Синди Баэр, Шона Уолрод, Гэри Бьюзи, Джерри Бедноб, Эрик Фишер, Брианна Ли Джонсон, Дон Суэйзи, Даниэль Кеннеди-Описание: Молодая девушка возвращается в семейный дом, который покинула давным-давно. Она совсем не помнит своего прошлого, как и того, что ее семейный дом - это место, где 4 августа 1892 года были убиты родители девочки Лиззи Борден. А когда умерла и она сама, ее призрак вернулся, чтобы отомстить за свое изгнание...-
-

Доп. Информация

Сценарий: Лейф Холт / Leif Holt, Marielle Seastrom
Продюсер: Домициано Арканджели / Domiziano Arcangeli, Грег Уэбб / Greg Webb, Джей Эллисон / Jay Ellison, Эрик Фишер / Eric Fischer, Aaron Holt
Оператор: Мэтт Мошер / Matt Mosher
Композитор: Шонн Флинн / Seann Flynn
Мировая премьера: 10 сентября 2013
-Качество: HDRip
Контейнер: AVI
Видео: XviD, 720x352 (2.045), 1877 kbps, 23,976 fps, 0,309 bpp
Аудио №1: Russian : AC3 / 2.0 / 48 kHz / 192 kbps / 16 bit
Аудио №2: German: AC3 / 2.0 / 48 kHz / 192 kbps / 16 bit-

Media Info

General
Complete name : D:\Lizzie.2013.L2.HDRip_1400Mb.avi
Format : AVI
Format/Info : Audio Video Interleave
File size : 1.37 GiB
Duration : 1h 26mn
Overall bit rate : 2 276 Kbps
Writing application : VirtualDubMod 1.5.10.3 | www.virtualdub-fr.org || (build 2550/release)
Writing library : VirtualDubMod build 2550/release
Video
ID : 0
Format : MPEG-4 Visual
Format profile : Advanced Simple@L5
Format settings, BVOP : 1
Format settings, QPel : No
Format settings, GMC : No warppoints
Format settings, Matrix : Custom
Codec ID : XVID
Codec ID/Hint : XviD
Duration : 1h 26mn
Bit rate : 1 877 Kbps
Width : 720 pixels
Height : 352 pixels
Display aspect ratio : 2.045
Frame rate : 23.976 fps
Color space : YUV
Chroma subsampling : 4:2:0
Bit depth : 8 bits
Scan type : Progressive
Compression mode : Lossy
Bits/(Pixel*Frame) : 0.309
Stream size : 1.13 GiB (82%)
Writing library : XviD 1.2.1 (UTC 2008-12-04)
Audio #1
ID : 1
Format : AC-3
Format/Info : Audio Coding 3
Mode extension : CM (complete main)
Codec ID : 2000
Duration : 1h 26mn
Bit rate mode : Constant
Bit rate : 192 Kbps
Channel(s) : 2 channels
Channel positions : Front: L R
Sampling rate : 48.0 KHz
Bit depth : 16 bits
Compression mode : Lossy
Stream size : 118 MiB (8%)
Alignment : Split accross interleaves
Interleave, duration : 42 ms (1.00 video frame)
Interleave, preload duration : 500 ms
Audio #2
ID : 2
Format : AC-3
Format/Info : Audio Coding 3
Mode extension : CM (complete main)
Codec ID : 2000
Duration : 1h 26mn
Bit rate mode : Constant
Bit rate : 192 Kbps
Channel(s) : 2 channels
Channel positions : Front: L R
Sampling rate : 48.0 KHz
Bit depth : 16 bits
Compression mode : Lossy
Stream size : 118 MiB (8%)
Alignment : Split accross interleaves
Interleave, duration : 42 ms (1.00 video frame)
Interleave, preload duration : 500 ms

Скриншот с названием фильма

Скриншоты

Скачать

Скачать торрент!

Как скачивать? · Что такое торрент? · Рейтинг и ограничения

Сайт не распространяет и не хранит электронные версии произведений, а лишь предоставляет доступ к создаваемому пользователями каталогу ссылок на торрент-файлы, которые содержат только списки хеш-сумм

[Профиль] [ЛС]
Показать сообщения:    
Ответить на тему

Текущее время: Сегодня 20:35

Часовой пояс: GMT + 4



Вы не можете начинать темы
Вы не можете отвечать на сообщения
Вы не можете редактировать свои сообщения
Вы не можете удалять свои сообщения
Вы не можете голосовать в опросах
Вы не можете прикреплять файлы к сообщениям
Вы не можете скачивать файлы