Джобс: Империя соблазна / jOBS (Джошуа Майкл Штерн / Joshua Michael Stern) [2013, США, драма, биография, BDRip-AVC] Dub

Ответить на тему
 
Автор Сообщение

user ®

Стаж: 7 лет 7 месяцев

Сообщений: 20008

Пост Пост: #1 от 22-Ноя-2013 15:15

[Цитировать]

Джобс: Империя соблазна / jOBS
-Страна: США
Жанр: драма, биография
Год выпуска: 2013
Продолжительность: 02:02:16-Перевод: Профессиональный (дублированный) лицензия
Cубтитры: нет-Режиссер: Джошуа Майкл Штерн / Joshua Michael Stern
В ролях: Эштон Кэтчер, Дермот Малруни, Джош Гад, Лукас Хаас, Дж.К. Симмонс, Лесли Энн Уоррен, Рон Элдард, Ана О’Райли, Джон Гец, Джеймс Вудс
Описание: Он был молод, красив и чертовски талантлив. Начав с нуля, он смог построить мировую империю соблазна. О нем грезили женщины. Ему завидовали мужчины. Он соблазнил миллионы. Его звали Стив Джобс...-Sample
Качество видео: BDRip-AVC [Blu-ray disc RUS 1080p]
Формат видео: MKV-Видео: AVC, 1024x432 (2.40:1), 1308 kbps, 25 fps, 0,118 bpp
Аудио 1: AC3 / 5.1 / 48 kHz / 384 kbps | DUB
-- -
-

MediaInfo

Log x264

x264 [info]: profile High, level 4.1
x264 [info]: frame I:1912 Avg QP:14.74 size: 67695
x264 [info]: frame P:41994 Avg QP:17.84 size: 15493
x264 [info]: frame B:139504 Avg QP:21.51 size: 3005
x264 [info]: consecutive B-frames: 3.1% 4.0% 8.0% 28.1% 18.3% 20.2% 5.1% 4.4% 2.8% 2.1% 0.9% 0.6% 0.5% 1.8%
x264 [info]: mb I I16..4: 10.5% 66.4% 23.1%
x264 [info]: mb P I16..4: 3.4% 7.3% 1.2% P16..4: 42.5% 17.8% 14.6% 0.9% 0.4% skip:11.9%
x264 [info]: mb B I16..4: 0.3% 0.4% 0.1% B16..8: 36.6% 6.1% 1.5% direct: 2.9% skip:52.1% L0:43.3% L1:46.7% BI:10.1%
x264 [info]: 8x8 transform intra:61.5% inter:63.1%
x264 [info]: coded y,uvDC,uvAC intra: 64.3% 63.9% 38.6% inter: 13.0% 10.4% 1.9%
x264 [info]: i16 v,h,dc,p: 52% 15% 5% 29%
x264 [info]: i8 v,h,dc,ddl,ddr,vr,hd,vl,hu: 13% 11% 7% 8% 12% 13% 12% 11% 12%
x264 [info]: i4 v,h,dc,ddl,ddr,vr,hd,vl,hu: 14% 12% 6% 9% 13% 13% 12% 11% 11%
x264 [info]: i8c dc,h,v,p: 40% 26% 20% 13%
x264 [info]: Weighted P-Frames: Y:3.3% UV:0.9%
x264 [info]: ref P L0: 52.4% 11.5% 15.7% 5.8% 4.2% 3.2% 2.6% 1.5% 1.4% 1.4% 0.2% 0.0%
x264 [info]: ref B L0: 77.5% 10.6% 5.0% 2.2% 1.7% 1.2% 1.1% 0.4% 0.2%
x264 [info]: ref B L1: 92.4% 7.6%
x264 [info]: kb/s:1307.74
General
Unique ID                                : 241002124205137511148747142227606768012 (0xB54F521DC53A8120A5D2ED45D962098C)
Complete name                            : D:\ФИЛЬМЫ\jOBS.(2013).BDRip-AVC.andre90.mkv
Format                                   : Matroska
Format version                           : Version 4 / Version 2
File size                                : 1.45 GiB
Duration                                 : 2h 2mn
Overall bit rate                         : 1 693 Kbps
Movie name                               : Джобс: Империя соблазна / jOBS (2013) BDRip-AVC by andre90
Encoded date                             : UTC 2013-11-21 08:13:18
Writing application                      : mkvmerge v6.1.0 ('Old Devil') built on Mar  2 2013 14:32:37
Writing library                          : libebml v1.3.0 + libmatroska v1.4.0
Video
ID                                       : 1
Format                                   : AVC
Format/Info                              : Advanced Video Codec
Format profile                           : High@L4.1
Format settings, CABAC                   : Yes
Format settings, ReFrames                : 10 frames
Codec ID                                 : V_MPEG4/ISO/AVC
Duration                                 : 2h 2mn
Bit rate                                 : 1 309 Kbps
Width                                    : 1 024 pixels
Height                                   : 432 pixels
Display aspect ratio                     : 2.40:1
Frame rate mode                          : Constant
Frame rate                               : 25.000 fps
Color space                              : YUV
Chroma subsampling                       : 4:2:0
Bit depth                                : 8 bits
Scan type                                : Progressive
Bits/(Pixel*Frame)                       : 0.118
Stream size                              : 1.09 GiB (75%)
Writing library                          : x264 core 133 r2334 a3ac64b
Encoding settings                        : cabac=1 / ref=10 / deblock=1:-1:-2 / analyse=0x3:0x133 / me=umh / subme=10 / psy=1 / psy_rd=1.00:0.00 / mixed_ref=1 / me_range=48 / chroma_me=1 / trellis=2 / 8x8dct=1 / cqm=0 / deadzone=21,11 / fast_pskip=0 / chroma_qp_offset=-2 / threads=3 / lookahead_threads=1 / sliced_threads=0 / nr=0 / decimate=1 / interlaced=0 / bluray_compat=0 / constrained_intra=0 / bframes=13 / b_pyramid=2 / b_adapt=2 / b_bias=0 / direct=1 / weightb=1 / open_gop=0 / weightp=2 / keyint=250 / keyint_min=25 / scenecut=40 / intra_refresh=0 / rc_lookahead=40 / rc=2pass / mbtree=1 / bitrate=1309 / ratetol=1.0 / qcomp=0.60 / qpmin=0 / qpmax=69 / qpstep=4 / cplxblur=20.0 / qblur=0.5 / vbv_maxrate=62500 / vbv_bufsize=78125 / nal_hrd=none / ip_ratio=1.40 / aq=1:1.00
Language                                 : English
Default                                  : Yes
Forced                                   : No
Audio
ID                                       : 2
Format                                   : AC-3
Format/Info                              : Audio Coding 3
Mode extension                           : CM (complete main)
Format settings, Endianness              : Big
Codec ID                                 : A_AC3
Duration                                 : 2h 2mn
Bit rate mode                            : Constant
Bit rate                                 : 384 Kbps
Channel(s)                               : 6 channels
Channel positions                        : Front: L C R, Side: L R, LFE
Sampling rate                            : 48.0 KHz
Bit depth                                : 16 bits
Compression mode                         : Lossy
Stream size                              : 336 MiB (23%)
Language                                 : Russian
Default                                  : Yes
Forced                                   : No

Скриншоты


Скачать

Скачать торрент!

Как скачивать? · Что такое торрент? · Рейтинг и ограничения

Сайт не распространяет и не хранит электронные версии произведений, а лишь предоставляет доступ к создаваемому пользователями каталогу ссылок на торрент-файлы, которые содержат только списки хеш-сумм

[Профиль] [ЛС]
Показать сообщения:    
Ответить на тему

Текущее время: Сегодня 20:38

Часовой пояс: GMT + 4



Вы не можете начинать темы
Вы не можете отвечать на сообщения
Вы не можете редактировать свои сообщения
Вы не можете удалять свои сообщения
Вы не можете голосовать в опросах
Вы не можете прикреплять файлы к сообщениям
Вы не можете скачивать файлы