Паранойя / Paranoia (Роберт Лукетич / Robert Luketic) [2013, США, Франция, триллер, драма, HDRip] Dub

Ответить на тему
 
Автор Сообщение

user ®

Стаж: 7 лет 7 месяцев

Сообщений: 20008

Пост Пост: #1 от 22-Ноя-2013 15:15

[Цитировать]

ПаранойяParanoia«В войне двух королей, даже пешка может победить»- Страна: США, Франция
Жанр: триллер, драма
Год выпуска: 2013
Продолжительность: 01:46:06-Перевод: Профессиональный (полное дублирование) [Лицензия]
Субтитры: нет
Режиссер: Роберт Лукетич / Robert Luketic
В ролях: Лиам Хемсворт, Гари Олдман, Эмбер Хёрд, Харрисон Форд, Лукас Тилл, Эмбет Дэвидц, Джулиан МакМэхон, Джош Холлоуэй, Ричард Дрейфусс, Анджела Сарафян, Уилльям Пельтц, Хейли Финнегэн-Описание: Адам Кэссиди - типичный «белый воротничок», пытающийся преуспеть на должности молодого специалиста в крупной телекоммуникационной корпорации. После одной весьма дорогостоящей ошибки он сталкивается лицом к лицу с безжалостным президентом компании, который соглашается не увольнять провинившегося при одном условии: Адам должен шпионить за старым наставником своего босса...-


MPAA: PG-13 - Детям до 13 лет просмотр не желателен-

Доп. Информация

Сценарий: Джейсон Дин Холл / Jason Dean Hall, Бэрри Леви / Barry Levy, Джозеф Финдер / Joseph Finder
Продюсер: Александра Милчэн / Alexandra Milchan, Дипак Наяр / Deepak Nayar, Уильям Д. Джонсон / William D. Johnson, Скотт Ламберт / Scott Lambert, Уильям С. Бисли / William S. Beasley
Оператор: Дэвид Тэттерсолл / David Tattersall
Композитор: Джанки Экс-Эл / Junkie XL
Бюджет: $35 000 000
Сборы в США: $7 385 015
Сборы в России: $2 201 332
Мировая премьера: 15 августа 2013
-Качество: HDRip (Исходник BDRip 1080p)
Контейнер: AVI
Видео: XviD, 720x304 (2.35:1), 1571 kbps, 23,976 fps, 0,300 bpp
Аудио: AC3 / 5.1 / 48 kHz / 384 kbps / 16 bit-

Знаете ли Вы, что...

  • Фильм снят по мотивам романа Джозефа Финдера «Паранойя» (Paranoia, 2004).

Media Info

General
Complete name : D:\Paranoya.2013.D.HDRip_1400MB.avi
Format : AVI
Format/Info : Audio Video Interleave
File size : 1.46 GiB
Duration : 1h 46mn
Overall bit rate : 1 965 Kbps
Writing application : VirtualDubMod 1.5.10.2 (build 2540/release)
Writing library : VirtualDubMod build 2540/release
Video
ID : 0
Format : MPEG-4 Visual
Format profile : Advanced Simple@L5
Format settings, BVOP : 2
Format settings, QPel : No
Format settings, GMC : No warppoints
Format settings, Matrix : Custom
Codec ID : XVID
Codec ID/Hint : XviD
Duration : 1h 46mn
Bit rate : 1 572 Kbps
Width : 720 pixels
Height : 304 pixels
Display aspect ratio : 2.35:1
Frame rate : 23.976 fps
Color space : YUV
Chroma subsampling : 4:2:0
Bit depth : 8 bits
Scan type : Progressive
Compression mode : Lossy
Bits/(Pixel*Frame) : 0.300
Stream size : 1.16 GiB (80%)
Writing library : XviD 1.2.1 (UTC 2008-12-04)
Audio
ID : 1
Format : AC-3
Format/Info : Audio Coding 3
Mode extension : CM (complete main)
Codec ID : 2000
Duration : 1h 46mn
Bit rate mode : Constant
Bit rate : 384 Kbps
Channel(s) : 6 channels
Channel positions : Front: L C R, Side: L R, LFE
Sampling rate : 48.0 KHz
Bit depth : 16 bits
Compression mode : Lossy
Stream size : 291 MiB (20%)
Alignment : Split accross interleaves
Interleave, duration : 42 ms (1.00 video frame)
Interleave, preload duration : 500 ms

Скриншот с названием фильма

Скриншоты

Скачать

Скачать торрент!

Как скачивать? · Что такое торрент? · Рейтинг и ограничения

Сайт не распространяет и не хранит электронные версии произведений, а лишь предоставляет доступ к создаваемому пользователями каталогу ссылок на торрент-файлы, которые содержат только списки хеш-сумм

[Профиль] [ЛС]
Показать сообщения:    
Ответить на тему

Текущее время: Сегодня 21:57

Часовой пояс: GMT + 4



Вы не можете начинать темы
Вы не можете отвечать на сообщения
Вы не можете редактировать свои сообщения
Вы не можете удалять свои сообщения
Вы не можете голосовать в опросах
Вы не можете прикреплять файлы к сообщениям
Вы не можете скачивать файлы