Росомаха: Бессмертный / The Wolverine (Джеймс Мэнголд / James Mangold) [2013, Австралия, США, фантастика, боевик, приключения, BDRip] [ Расширенная версия / Extended Cut] Dub + Sub (Rus Forced)

Ответить на тему
 
Автор Сообщение

user ®

Стаж: 7 лет 7 месяцев

Сообщений: 20008

Пост Пост: #1 от 22-Ноя-2013 15:15

[Цитировать]

РосомахаБессмертный Год выпуска: 2013
Страна: Австралия, США
Жанр: фантастика, боевик, приключения
Продолжительность: 02:18:05
Перевод: профессиональный полное дублирование Blu-ray CEE
Cубтитры: русские форсированные на японскую речь (lankano) внешние, softsub (SRT)-Режиссёр: Джеймс Мэнголд / James Mangold-В ролях:
Хью Джекман, Светлана Ходченкова, Фамке Янссен, Тао Окамото, Рила Фукусима, Уилл Юн Ли, Харукико Яманоути, Хироюки Санада, Брайан Ти, Кен Ямамура, Нобутака Аояги, Сейдзи Фунамото, Киоко Саито, Нубаки Какуда, Чихару Мидзуно, Такао Киносита, Конрад Колеби, Тарис Тайлер, Сара Нэйлор-Лидделл, Дж. Ремилтон, Энди Оуэнс, Аллан Попплтон, Джофф Бурк, Джошуа Ремилтон, Ясуё Сиба, Мэй Исикава, Яэко Кимура-Описание:
Новая глава приключений Росомахи развернётся в Японии, где Логану предстоит выяснить, что острее — когти Росомахи или меч Серебряного Самурая.-
  • Хью Джекман уже шесть раз перевоплощался в Логана на экране. Это рекорд для одного актера, исполняющего роль героя комиксов.
  • Во время подготовки к своей роли Хью Джекман тесно сотрудничал с известной группой каскадеров 87Eleven, оттачивая разнообразные приемы ниндзюцу и других японских боевых искусств.
  • Съемки длились всего 80 дней и проходили в Японии и на студии компании Fox в Сиднее, Австралия.
  • Одной из самых сложных декораций фильма была Ледяная деревня, которую художник тщательно воссоздал в пригороде Сиднея, основываясь на своих впечатлениях от посещения трех горных деревушек в японской префектуре Нагано.
  • Хотя у Логана всего около пяти костюмов, для Джекмана пришлось изготовить почти сотню отдельных элементов одежды, учитывая его многочисленные непростые приключения, в которые его одежда вместе с ним попадала.
  • Первоначально режиссером фильма должен был стать Даррен Аронофски, он даже работал над проектом около полугода, но потом отказался, сославшись на то, что длительные заграничные съемки не дают ему видеться со своей семьей (на тот момент он только разошелся с Рейчел Вайс, матерью его ребенка). За время своего участия в проекте он переписал сценарий Кристофера МакКуорри, и, возможно, истинной причиной его ухода из проекта послужило нежелание студии утвердить его версию сценария, которая бы получила рейтинг R из-за сцен сексуального содержания и жестокого насилия.
  • Джессике Бил была предложена роль, которая в итоге досталась Светлане Ходченковой.
  • Гильермо дель Торо, будучи поклонником японской саги из комиксов о Росомахе, выражал свою заинтересованность в должности режиссера этого фильма. Он встречался с Джеймсом Джианопулосом (James Gianopulos) и Хью Джекманом, чтобы обсудить режиссуру фильма, но в конечном итоге решил, что не хочет тратить два-три года своей жизни на работу над этим фильмом.
  • Для подготовки к своей роли Хью Джекман связался с Дуэйном Джонсоном, чтобы посоветоваться, как набрать мышечную массу. Джонсон сказал Джекману, что тот сможет набирать по фунту в неделю на протяжении шести месяцев при употреблении в пищу 6000 калорий в день (очень много курицы, стейки и коричневый рис).
  • Хью Джекман сказал, что в этом фильме он наконец-то достиг того телосложения, которое, судя по его представлениям, должен иметь Росомаха. Он сказал, что по некоторым причинам во все предыдущие пять раз, когда он исполнял роль этого персонажа, у него не было достаточно времени, чтобы набрать нужную форму, но в этом фильме ему это все же удалось. Актер Уилл Юн Ли также отметил, что в этом фильме Джекман набрал лучшую физическую форму из всех фильмов о Росомахе.
  • Подзаголовок «Бессмертный» фильм имеет в России, Аргентине, Бразилии, Чили, Испании и Италии. Во Франции у фильма подзаголовок «Битва бессмертного», в Японии — «Самурай», в Германии — «Путь воина».

-
-IMDB: 6.9/10 (119 096 votes)
Кинопоиск: 6.638 (33 275)- -Сэмпл--Качество видео: BDRip
Формат видео: AVI
Видео кодек: XviD
Аудио кодек: АС3
Видео: 720x304 (2.37:1), 23.976 fps, XviD, ~1318 kbps avg, 0.25 bit/pixel
Аудио: 48 kHz, AC3 Dolby Digital, 2/0 (L,R) ch, ~192 kbps

MI

General
Complete name : D:\Rosomaha.Bessmertniy.2013.Extended.BDRip\Rosomaha.Bessmertniy.2013.Extended.BDRip.avi
Format : AVI
Format/Info : Audio Video Interleave
File size : 1.47 GiB
Duration : 2h 18mn
Overall bit rate : 1 520 Kbps
Writing application : VirtualDubMod 1.5.10.3 (build 2550/release)
Writing library : VirtualDubMod build 2550/release
Video
ID : 0
Format : MPEG-4 Visual
Format profile : Advanced Simple@L5
Format settings, BVOP : 1
Format settings, QPel : No
Format settings, GMC : No warppoints
Format settings, Matrix : Custom
Codec ID : XVID
Codec ID/Hint : XviD
Duration : 2h 18mn
Bit rate : 1 318 Kbps
Width : 720 pixels
Height : 304 pixels
Display aspect ratio : 2.35:1
Frame rate : 23.976 fps
Color space : YUV
Chroma subsampling : 4:2:0
Bit depth : 8 bits
Scan type : Progressive
Compression mode : Lossy
Bits/(Pixel*Frame) : 0.251
Stream size : 1.27 GiB (87%)
Writing library : XviD 64
Audio
ID : 1
Format : AC-3
Format/Info : Audio Coding 3
Mode extension : CM (complete main)
Codec ID : 2000
Duration : 2h 18mn
Bit rate mode : Constant
Bit rate : 192 Kbps
Channel(s) : 2 channels
Channel positions : Front: L R
Sampling rate : 48.0 KHz
Bit depth : 16 bits
Compression mode : Lossy
Stream size : 190 MiB (13%)
Alignment : Split accross interleaves
Interleave, duration : 42 ms (1.00 video frame)
Interleave, preload duration : 500 ms

Скриншоты



Скачать

Скачать торрент!

Как скачивать? · Что такое торрент? · Рейтинг и ограничения

Сайт не распространяет и не хранит электронные версии произведений, а лишь предоставляет доступ к создаваемому пользователями каталогу ссылок на торрент-файлы, которые содержат только списки хеш-сумм

[Профиль] [ЛС]
Показать сообщения:    
Ответить на тему

Текущее время: Сегодня 06:58

Часовой пояс: GMT + 4



Вы не можете начинать темы
Вы не можете отвечать на сообщения
Вы не можете редактировать свои сообщения
Вы не можете удалять свои сообщения
Вы не можете голосовать в опросах
Вы не можете прикреплять файлы к сообщениям
Вы не можете скачивать файлы