Тор 2: Царство тьмы / Thor: The Dark World (Алан Тейлор / Alan Taylor) [2013, США, фэнтези, боевик, приключения, CamRip] MVO

Ответить на тему
 
Автор Сообщение

user ®

Стаж: 7 лет 7 месяцев

Сообщений: 20008

Пост Пост: #1 от 22-Ноя-2013 15:15

[Цитировать]

Тор 2: Царство тьмы / Thor: The Dark World
Страна: США
Жанр: фэнтези, боевик, приключения
Год выпуска: 2013
Продолжительность: 01:46:21
Перевод: Любительский (многоголосый закадровый)
Cубтитры: нет
Оригинальная аудиодорожка: нет
Режиссер: Алан Тейлор / Alan Taylor
В ролях: Крис Хемсворт (Chris Hemsworth), Натали Портман (Natalie Portman), Том Хиддлстон (Tom Hiddleston), Энтони Хопкинс (Anthony Hopkins), Кристофер Экклстон (Christopher Eccleston), Джейми Александер (Jaimie Alexander), Закари Левай (Zachary Levi), Рэй Стивенсон (Ray Stevenson)
Описание: Продолжение приключений одного из членов команды Мстителей, скандинавского бога Тора, которому на этот раз в одиночку предстоит защитить Землю и все девять миров от нашествия неизвестного врага.Могучему Тору предстоит вновь сразиться за восстановление порядка в галактике, встретившись лицом к лицу с древней инопланетной расой, ведомой злодеем Малекитом, жаждущим установить в девяти мирах власть тьмы. Столкнувшись с врагом, более могущественным чем сам Один и всё воинство Асгарда, Тор должен собрать силы для решающей битвы. Его ждёт опасное путешествие и долгожданная встреча со своей земной возлюбленной Джейн Фостер. Сможет ли Тор рискнуть самым дорогим, чтобы не дать тьме воцариться на просторах вселенной?
Доп. информация:
Примечание: В начале и в конце фильма отсутствует перевод около 1 минуты
Сэмпл: http://multi-up.com/925650
Качество видео: CamRip
Формат видео: AVI
Видео: 720x272 (2.647:1), 25.000 fps, XviD, 2 579 Kbps
Аудио: MP3, 192 Kbps, 44.1 KHz, 2 ch

MediaInfo

General
Complete name : Тор 2. Царство тьмы (2013 TS Dub).avi
Format : AVI
Format/Info : Audio Video Interleave
Format profile : OpenDML
File size : 2.07 GiB
Duration : 1h 46mn
Overall bit rate : 2 783 Kbps
Movie name : Тор 2. Царство тьмы (2013 TS Dub)
Director : SDelfin
Genre : фэнтези, боевик, приключения
Writing application : VirtualDubMod 1.5.10.3 (build 2550/release)
Writing library : VirtualDubMod build 2550/release
Copyright : Future Video (www.futurevideo.su)
Comment : 18.11.2013
Video
ID : 0
Format : MPEG-4 Visual
Format profile : Advanced Simple@L5
Format settings, BVOP : Yes
Format settings, QPel : No
Format settings, GMC : No warppoints
Format settings, Matrix : Default (MPEG)
Muxing mode : Packed bitstream
Codec ID : XVID
Codec ID/Hint : XviD
Duration : 1h 46mn
Bit rate : 2 579 Kbps
Width : 720 pixels
Height : 272 pixels
Display aspect ratio : 2.647
Frame rate : 25.000 fps
Color space : YUV
Chroma subsampling : 4:2:0
Bit depth : 8 bits
Scan type : Progressive
Bits/(Pixel*Frame) : 0.527
Stream size : 1.92 GiB (93%)
Writing library : XviD 64
Audio
ID : 1
Format : MPEG Audio
Format version : Version 1
Format profile : Layer 3
Mode : Joint stereo
Mode extension : MS Stereo
Codec ID : 55
Codec ID/Hint : MP3
Duration : 1h 46mn
Bit rate mode : Constant
Bit rate : 192 Kbps
Channel(s) : 2 channels
Sampling rate : 44.1 KHz
Stream size : 146 MiB (7%)
Alignment : Split accross interleaves
Interleave, duration : 40 ms (1.00 video frame)
Interleave, preload duration : 500 ms

Скриншот c названием фильма

Скриншоты




Скачать

Скачать торрент!

Как скачивать? · Что такое торрент? · Рейтинг и ограничения

Сайт не распространяет и не хранит электронные версии произведений, а лишь предоставляет доступ к создаваемому пользователями каталогу ссылок на торрент-файлы, которые содержат только списки хеш-сумм

[Профиль] [ЛС]
Показать сообщения:    
Ответить на тему

Текущее время: Сегодня 06:02

Часовой пояс: GMT + 4



Вы не можете начинать темы
Вы не можете отвечать на сообщения
Вы не можете редактировать свои сообщения
Вы не можете удалять свои сообщения
Вы не можете голосовать в опросах
Вы не можете прикреплять файлы к сообщениям
Вы не можете скачивать файлы